Login
Username:
Password:
Remember Me:
[Signup]
[Recover Account]
Friends
BTScene
Friendly site

Ale Torrenty Team
Friendly site

Anime RG
Friendly site

KaranPC
Friendly site

P2PDL.com
Friendly site
Torrent Details For "Full.Frontal.with.Samantha.Bee.S01E35.720p.HDTV.x264-BRISK[PRiME]"

Full.Frontal.with.Samantha.Bee.S01E35.720p.HDTV.x264-BRISK[PRiME]

To download this torrent, you need a BitTorrent client: Vuze or BTGuard
Download this torrent
Download using Magnet Link

Direct Download - no client needed

Download Faster - High Speed Download

Health:
Seeds: 15
Leechers: 72
Completed:
Last Checked: 12-01-2017 11:30:30

Uploader Reputation points : 96536
External: Torrent




Write a Review for the Uploader:   45   Say Thanks with one good review:
Share on Facebook


Details
Name:Full.Frontal.with.Samantha.Bee.S01E35.720p.HDTV.x264-BRISK[PRiME]
Description:

Full.Frontal.with.Samantha.Bee.S01E35.720p.HDTV.x264-BRISK[PRiME]



Complete name                            : Full.Frontal.with.Samantha.Bee.S01E35.720p.HDTV.x264-BRISK[PRiME].mkv
Format                                   : Matroska
Format version                           : Version 2
File size                                : 472 MiB
Duration                                 : 21 min 2 s
Overall bit rate                         : 3 135 kb/s
Writing application                      : x264.exe
Writing library                          : mkv2rls x264-tv version built on 2016.10.12

Video
ID                                       : 1
Format                                   : AVC
Format/Info                              : Advanced Video Codec
Format profile                           : [email protected]
Format settings, CABAC                   : Yes
Format settings, ReFrames                : 5 frames
Codec ID                                 : V_MPEG4/ISO/AVC
Duration                                 : 21 min 2 s
Bit rate                                 : 2 625 kb/s
Width                                    : 1 280 pixels
Height                                   : 714 pixels
Display aspect ratio                     : 16:9
Frame rate mode                          : Constant
Frame rate                               : 59.940 (60000/1001) FPS
Color space                              : YUV
Chroma subsampling                       : 4:2:0
Bit depth                                : 8 bits
Scan type                                : Progressive
Bits/(Pixel*Frame)                       : 0.048
Stream size                              : 395 MiB (84%)
Writing library                          : x264 core 148 r2744 b97ae06
Encoding settings                        : cabac=1 / ref=5 / deblock=1:-2:-2 / analyse=0x3:0x113 / me=hex / subme=8 / psy=1 / psy_rd=1.05:0.00 / mixed_ref=1 / me_range=16 / chroma_me=1 / trellis=2 / 8x8dct=1 / cqm=0 / deadzone=21,11 / fast_pskip=1 / chroma_qp_offset=-2 / threads=22 / lookahead_threads=3 / sliced_threads=0 / nr=0 / decimate=1 / interlaced=0 / bluray_compat=0 / constrained_intra=0 / bframes=3 / b_pyramid=2 / b_adapt=1 / b_bias=0 / direct=3 / weightb=1 / open_gop=0 / weightp=2 / keyint=250 / keyint_min=25 / scenecut=40 / intra_refresh=0 / rc_lookahead=50 / rc=crf / mbtree=1 / crf=18.0 / qcomp=0.60 / qpmin=0 / qpmax=69 / qpstep=4 / ip_ratio=1.40 / aq=1:0.70
Language                                 : English
Default                                  : Yes
Forced                                   : No

Audio
ID                                       : 2
Format                                   : AC-3
Format/Info                              : Audio Coding 3
Mode extension                           : CM (complete main)
Format settings, Endianness              : Big
Codec ID                                 : A_AC3
Duration                                 : 21 min 2 s
Bit rate mode                            : Constant
Bit rate                                 : 448 kb/s
Channel(s)                               : 6 channels
Channel positions                        : Front: L C R, Side: L R, LFE
Sampling rate                            : 48.0 kHz
Frame rate                               : 31.250 FPS (1536 spf)
Compression mode                         : Lossy
Stream size                              : 67.4 MiB (14%)
Language                                 : English
Default                                  : Yes
Forced                                   : No

Text
ID                                       : 3
Format                                   : UTF-8
Codec ID                                 : S_TEXT/UTF8
Codec ID/Info                            : UTF-8 Plain Text
Title                                    : English
Language                                 : English
Default                                  : No
Forced                                   : No




Click Image To View Full Size


Click To View Screenshot
Click To View Screenshot
Click To View Screenshot

YouTube Video:
Category:TV
Language:English  English
Total Size:471.88 MB
Info Hash:CE7F6D694E2F91489D42D31D34BA099BFD13B875
Added By:Simmoncelli VIPMovie Pirate
Date Added:12-01-2017 11:13:37
Torrent Status:Torrent Verified


Ratings:Not Yet Rated (Log in to rate it)


Tracker:
udp://tracker.ilibr.org:6969/announce

This Torrent also has backup trackers
URLSeedersLeechersCompleted
udp://tracker.ilibr.org:6969/announce2120
udp://tracker.coppersurfer.tk:69692120
udp://tracker.ilibr.org:80/announce100
udp://tracker.coppersurfer.tk:6969/announce100
udp://tracker.leechers-paradise.org:6969/announce250
udp://tracker.opentrackr.org:1337/announce2100
udp://tracker.zer0day.to:1337/announce1100
udp://ipv4.tracker.harry.lu:80/announce130
udp://p4p.arenabg.ch:1337/announce150
udp://p4p.arenabg.com:1337/announce150
udp://9.rarbg.com:2710/announce100
udp://9.rarbg.to:2710/announce100
udp://9.rarbg.me:2710/announce100
udp://explodie.org:6969/announce150
udp://eddie4.nl:6969/announce250


File List: 





Comments
No comments still posted