GloDLS.to - Download Movies, TV, Games and Other Torrents Free RSS 2.0enGloDLS.to - Download Movies, TV, Games and Other Torrents FreeGloDLS.to - Download Movies, TV, Games and Other Torrents Free RSS Feedhttp://glodls.toCopyright GloDLS.to - Download Movies, TV, Games and Other Torrents FreeWed, 29 Mar 2017 23:50:23 +0100 La Promessa Dell Assassino 2007 iTALiAN AC3 DVDRip XviD-[WEB] avi http://glodls.to/torrent.php?id=2337238 http://glodls.to/torrent.php?id=2337238 Wed, 29 Mar 2017 22:47:02 +0100 Movies
Titolo originale: Eastern Promises
Nazione,Anno: Usa 2007
Cast: Viggo Mortensen, Naomi Watts, Vincent Cassel, Armin Mueller-Stahl, Sinéad Cusack, Donald Sumpter, Josef Altin, Raza Jaffrey, Sarah-Jeanne Labrosse, Aleksandar Mikic, Mina E. Mina, Michael Sarne, Jerzy Skolimowski, Mia Soteriou, Tereza Srbova
Regia: David Cronenberg
Genere: Drammatico, Thriller
Durata: 100 Min
Data di uscita: 14 dicembre 2007 (Italia)


[color=red][b].:: TRAMA ::.[/b][/color]

Il misterioso e ruvido Nikolai è legato ad una delle più note famiglie criminali di Londra. Nikolai gestisce la sua vita in maniera attenta e metodica; tutto questo viene però sconvolto quando sulla strada di Nikolai appare Anna, un'ostetrica che vuole indagare sulla mistero che circonda una sua paziente, una prostituta morta durante il parto. Nel corso delle sue ricerche Anna scopre accidentalmente delle prove compromettenti per la famiglia cui Nikolai è legato. L’incontro con Anna scatenerà una serie di delitti, menzogne e ricompense, con Nikolai a fare da perno a tutti gli avvenimenti. Presentato al Festival di Toronto del 2007.

[url=https://postimg.org/image/4h32bnwsl/][img]https://s18.postimg.org/4h32bnwsl/vlcsnap-00002.png[/img][/url]
[url=https://postimg.org/image/6a5yzzhz9/][img]https://s18.postimg.org/6a5yzzhz9/vlcsnap-00006.png[/img][/url]
[url=https://postimg.org/image/egxyrk81x/][img]https://s18.postimg.org/egxyrk81x/vlcsnap-00007.png[/img][/url]
[url=https://postimg.org/image/728mz6m6d/][img]https://s18.postimg.org/728mz6m6d/vlcsnap-00010.png[/img][/url]
[url=https://postimg.org/image/kxbive5z9/][img]https://s18.postimg.org/kxbive5z9/vlcsnap-00011.png[/img][/url]

[color=red][b].:: AVINAPTIC ::.[/b][/color]

[spoiler]

[ Info sul file ]

Nome: La.Promessa.Dell.Assassino.2007.iTALiAN.AC3.DVDRip.XviD-[WEB].avi
Data: Thu, 30 Mar 2017 00:24:29 +0200
Dimensione: 1,465,749,504 bytes (1397.847656 MiB)

[ Magic ]

Tipo file: RIFF (little-endian) data, AVI, 704 x 384, 25.00 fps, video: XviD, audio: Dolby AC3 (5 channels, 48000 Hz)

[ Info generiche ]

Durata: 01:37:11 (5830.96 s)
Contenitore: AVI OpenDML
L'AVI ha un indice?: Sì
Totale tracce: 2
Traccia n. 0: video
Traccia n. 1: audio
ISFT: FairUse Wizard - http://fairusewizard.com
Junk: The best and REALLY easy backup tool

[ Dati rilevanti ]

Risoluzione: 704 x 384
Larghezza: multipla di 32
Altezza: multipla di 32
DRF medio: 3.004788
Deviazione standard: 1.02243
Media pesata dev. std.: 0.397408

[ Traccia video ]

FourCC: xvid/XVID
Risoluzione: 704 x 384
Frame aspect ratio: 11:6 = 1.833333 (~1.85:1)
Pixel aspect ratio: 1:1 = 1
Display aspect ratio: 11:6 = 1.833333 (~1.85:1)
Framerate: 25 fps
Totale frames: 145,774
Dimensione stream: 1,132,170,782 bytes (1079.722197 MiB)
Bitrate: 1553.323339 kbps
Qf: 0.229836
Key frames: 1,294 (0; 25; 325; 625; 925; ... 145729)
Null frames: 0
Min key int: 1
Max key int: 300
Avg key int: 112.653787
Ritardo: 0 ms

[ Traccia audio ]

Audio tag: 0x2000 (AC3)
Canali: 5
Chunks: 145,763
Dimensione stream: 326,533,760 bytes (311.40686 MiB)
Tipo di bitstream (bs): AC3
Frames (bs): 182,217
Durata: 01:37:11 (5830.944 s)
Chunk-aligned (bs): No
Bitrate (bs): 448 kbps CBR
Freq. campionamento (bs): 48000 Hz
Modo (bs): 3 front, 2 rear, 1 LFE
Final skip (bs): 896 bytes
Preload: 480 ms
Max A/V diff: 496 ms
Ritardo: 0 ms

[ Bitstream video ]

Tipo di bitstream: MPEG-4 Part 2
User data: DivX503b1393p
User data: XviD0047
Packed bitstream: Sì
QPel: No
GMC: No
Interlacciamento: No
Aspect ratio: Square pixels
Quant type: MPEG
Totale frames: 145,774
Drop/delay frames: 0
Frames corrotti: 0

I-VOPs: 1294 ( 0.888 %)
P-VOPs: 72858 ( 49.980 %) ##########
B-VOPs: 71622 ( 49.132 %) ##########
S-VOPs: 0 ( 0.000 %)
N-VOPs: 1 ( 0.001 %)

Max B-VOPs consecutivi: 1

[ Analisi DRF ]

DRF nedio: 3.004788
deviazione standard: 1.02243
max DRF: 7

DRF=1: 3687 ( 2.529 %) #
DRF=2: 61040 ( 41.873 %) ########
DRF=3: 15525 ( 10.650 %) ##
DRF=4: 62067 ( 42.578 %) #########
DRF=5: 3340 ( 2.291 %)
DRF=6: 95 ( 0.065 %)
DRF=7: 20 ( 0.014 %)
DRF>7: 0 ( 0.000 %)

I-VOPs DRF medio: 1.87558
I-VOPs deviazione std.: 0.337011
I-VOPs max DRF: 3

P-VOPs DRF medio: 2.082997
P-VOPs deviazione std.: 0.417492
P-VOPs max DRF: 4

B-VOPs DRF medio: 3.962888
B-VOPs deviazione std.: 0.378069
B-VOPs max DRF: 7

[ Conformità al profilo ]

Profilo selezionato: MTK PAL 6000
Risoluzione: Ok
Framerate: Ok
Min riempimento buffer: 81%

Rapporto creato da AVInaptic (18-12-2011) in data 30-03-2017 00:34:11

[/spoiler] ]]>
A.Dogs.Purpose.2017.HC.TCRip.XVID.AC3.HQ.Hive-CM8.(2) http://glodls.to/torrent.php?id=2337236 http://glodls.to/torrent.php?id=2337236 Wed, 29 Mar 2017 22:27:32 +0100 Movies [color=red][b]
A.Dogs.Purpose.2017.HC.TCRip.XVID.AC3.HQ.Hive-CM8.(2)

[/b][/color]


IMDb: http://www.imdb.com/title/tt1753383/


[img]https://images-na.ssl-images-amazon.com/images/M/MV5BNDQ4NjkxNzgzN15BMl5BanBnXkFtZTgwMjAzODQ4OTE@._V1_SX300.jpg[/img]


[url=https://boltimg.com/image/t52z][img]https://boltimg.com/images/t52z.png[/img][/url]



[color=green][b]
General

(Duration): 1h 33mn
(FileSize): 1.28 GiB



Audio

(Format): AC-3 - Audio Coding 3
(Codec): AC3



Video

(Format): MPEG-4 Visual -
(Media): video/MP4V-ES
(Format): XviD
(Resolution): 720x336 px
(AspectRatio): 2.143
(FrameRate): 25.000 fps




[/b][/color]


[url=https://boltimg.com/image/tzTE][img]https://boltimg.com/images/tzTE.png[/img][/url]



[color=purple][b](Click to enlarge)[/b][/color]

[url=https://boltimg.com/image/guAJW][img]https://boltimg.com/images/guAJW.th.jpg[/img][/url] [url=https://boltimg.com/image/guaex][img]https://boltimg.com/images/guaex.th.jpg[/img][/url] [url=https://boltimg.com/image/guouX][img]https://boltimg.com/images/guouX.th.jpg[/img][/url] [url=https://boltimg.com/image/guusw][img]https://boltimg.com/images/guusw.th.jpg[/img][/url] [url=https://boltimg.com/image/guBNL][img]https://boltimg.com/images/guBNL.th.jpg[/img][/url] [url=https://boltimg.com/image/guKfp][img]https://boltimg.com/images/guKfp.th.jpg[/img][/url]

[/center]
]]>
A.Dogs.Purpose.2017.HC.TCRip.XVID.AC3.HQ.Hive-CM8[PRiME] http://glodls.to/torrent.php?id=2337235 http://glodls.to/torrent.php?id=2337235 Wed, 29 Mar 2017 22:17:30 +0100 Movies A.Dogs.Purpose.2017.HC.TCRip.XVID.AC3.HQ.Hive-CM8[PRiME]

ImDb: [URL]http://www.imdb.com/title/tt1753383[/URL]

[url=https://www.sparrowpics.com/image/LwB][img]https://www.sparrowpics.com/images/2015/12/10/Info.png[/img][/url]

[color=green]Complete name : A.Dogs.Purpose.2017.HC.TCRip.XVID.AC3.HQ.Hive-CM8[PRiME].avi
Format : AVI
Format/Info : Audio Video Interleave
File size : 1.28 GiB
Duration : 1 h 33 min
Overall bit rate : 1 953 kb/s
Writing application : Nandub v1.0rc2
Writing library : Nandub build 1853/release

Video
ID : 0
Format : MPEG-4 Visual
Format profile : Advanced Simple@L5
Format settings, BVOP : 2
Format settings, QPel : Yes
Format settings, GMC : No warppoints
Format settings, Matrix : Default (H.263)
Muxing mode : Packed bitstream
Codec ID : XVID
Codec ID/Hint : XviD
Duration : 1 h 33 min
Bit rate : 1 688 kb/s
Width : 720 pixels
Height : 336 pixels
Display aspect ratio : 2.143
Frame rate : 25.000 FPS
Color space : YUV
Chroma subsampling : 4:2:0
Bit depth : 8 bits
Scan type : Progressive
Compression mode : Lossy
Bits/(Pixel*Frame) : 0.279
Stream size : 1.11 GiB (86%)
Writing library : XviD 1.2.1 (UTC 2008-12-04)

Audio
ID : 1
Format : AC-3
Format/Info : Audio Coding 3
Mode extension : CM (complete main)
Format settings, Endianness : Big
Codec ID : 2000
Duration : 1 h 33 min
Bit rate mode : Constant
Bit rate : 256 kb/s
Channel(s) : 2 channels
Channel positions : Front: L R
Sampling rate : 48.0 kHz
Frame rate : 31.250 FPS (1536 spf)
Compression mode : Lossy
Stream size : 172 MiB (13%)
Alignment : Split accross interleaves
Interleave, duration : 40 ms (1.00 video frame)
Interleave, preload duration : 500 ms[/color]

[url=https://www.sparrowpics.com/image/UYe][img]https://www.sparrowpics.com/images/2015/12/10/Screens.png[/img][/url]

[color=red]Click Image To View Full Size[/color]

[URL=https://www.sparrowpics.com/image/DpW7b][IMG]https://www.sparrowpics.com/images/2017/03/30/DpW7b.th.jpg[/IMG][/URL]
[URL=https://www.sparrowpics.com/image/Dp3M3][b]Click To View Screenshot[/b][/URL]
[URL=https://www.sparrowpics.com/image/DpIdK][b]Click To View Screenshot[/b][/URL]
[URL=https://www.sparrowpics.com/image/DpPGX][b]Click To View Screenshot[/b][/URL]

[/center] ]]>
HardTied 17 03 29 Rain Degrey XXX XviD SD http://glodls.to/torrent.php?id=2337234 http://glodls.to/torrent.php?id=2337234 Wed, 29 Mar 2017 22:16:32 +0100 Adult XXX
[b]Screenshots:[/b]

[url]http://imgkings.com/img-58dc32425a838.html[/url]

[url]http://imgkings.com/img-58dc324255987.html[/url]

[url]http://imgkings.com/img-58dc324250c39.html[/url]

[url]http://imgkings.com/img-58dc323fb1cbf.html[/url] ]]>
Forever Knight Season S01 DVD x265 10bit AAC 2.0 http://glodls.to/torrent.php?id=2337173 http://glodls.to/torrent.php?id=2337173 Wed, 29 Mar 2017 22:00:54 +0100 TV http://www.tvrage.com/schedule.php?show_yesterday=1. ]]> Rick.Mercer.Report.S14E19.HDTV.x264-CROOKS[ettv] http://glodls.to/torrent.php?id=2337170 http://glodls.to/torrent.php?id=2337170 Wed, 29 Mar 2017 22:00:53 +0100 TV http://www.tvrage.com/schedule.php?show_yesterday=1. ]]> This.Hour.Has.22.Minutes.S24E21.HDTV.x264-CROOKS[ettv] http://glodls.to/torrent.php?id=2337166 http://glodls.to/torrent.php?id=2337166 Wed, 29 Mar 2017 22:00:51 +0100 TV http://www.tvrage.com/schedule.php?show_yesterday=1. ]]> Rectify.4x01-08.WEBMux.XviD.Ita.Eng.Ac3.Ba79-iCV-MIRCrew http://glodls.to/torrent.php?id=2337162 http://glodls.to/torrent.php?id=2337162 Wed, 29 Mar 2017 22:00:49 +0100 TV http://www.tvrage.com/schedule.php?show_yesterday=1. ]]> MasterChef S13E01 http://glodls.to/torrent.php?id=2337159 http://glodls.to/torrent.php?id=2337159 Wed, 29 Mar 2017 22:00:47 +0100 TV http://www.tvrage.com/schedule.php?show_yesterday=1. ]]> The.Librarians.3x01-10.WEB-DLMux.XviD.Ita.Ac3.Ba79-iCV-MIRCrew http://glodls.to/torrent.php?id=2337156 http://glodls.to/torrent.php?id=2337156 Wed, 29 Mar 2017 22:00:45 +0100 TV http://www.tvrage.com/schedule.php?show_yesterday=1. ]]> TMZ.on.TV.2017.03.28.WEB.x264.mp4 http://glodls.to/torrent.php?id=2337154 http://glodls.to/torrent.php?id=2337154 Wed, 29 Mar 2017 22:00:44 +0100 TV http://www.tvrage.com/schedule.php?show_yesterday=1. ]]> Hollyoaks 29th Mar 2017 HDTV (Deep61) [WWRG] http://glodls.to/torrent.php?id=2337151 http://glodls.to/torrent.php?id=2337151 Wed, 29 Mar 2017 22:00:43 +0100 TV http://www.tvrage.com/schedule.php?show_yesterday=1. ]]> Emmerdale 29th Mar 2017 HDTV (Deep61) [WWRG] http://glodls.to/torrent.php?id=2337148 http://glodls.to/torrent.php?id=2337148 Wed, 29 Mar 2017 22:00:41 +0100 TV http://www.tvrage.com/schedule.php?show_yesterday=1. ]]> The.Voice.S12E12.HDTV.x264-2HD[ettv] http://glodls.to/torrent.php?id=2337145 http://glodls.to/torrent.php?id=2337145 Wed, 29 Mar 2017 22:00:40 +0100 TV http://www.tvrage.com/schedule.php?show_yesterday=1. ]]> Coronation Street 29th Mar 2017 HDTV (Deep61) [WWRG] http://glodls.to/torrent.php?id=2337143 http://glodls.to/torrent.php?id=2337143 Wed, 29 Mar 2017 22:00:38 +0100 TV http://www.tvrage.com/schedule.php?show_yesterday=1. ]]> The.AFL.Footy.Show.S24E04.WEB-DL.x264-MFO.mp4 http://glodls.to/torrent.php?id=2337141 http://glodls.to/torrent.php?id=2337141 Wed, 29 Mar 2017 22:00:37 +0100 TV http://www.tvrage.com/schedule.php?show_yesterday=1. ]]> WWE Smackdown Live 2017.03.28 HDTV x264 375MB (nItRo)-XpoZ[HTD 17] http://glodls.to/torrent.php?id=2337134 http://glodls.to/torrent.php?id=2337134 Wed, 29 Mar 2017 22:00:33 +0100 TV http://www.tvrage.com/schedule.php?show_yesterday=1. ]]> Family Guy - S15E17 Peters Lost Youth - WEB-DL 480p x264 SCREENTIME http://glodls.to/torrent.php?id=2337132 http://glodls.to/torrent.php?id=2337132 Wed, 29 Mar 2017 22:00:32 +0100 TV http://www.tvrage.com/schedule.php?show_yesterday=1. ]]> The Young And The Restless - S44 E11143 - 2017-03-29 http://glodls.to/torrent.php?id=2337129 http://glodls.to/torrent.php?id=2337129 Wed, 29 Mar 2017 22:00:31 +0100 TV http://www.tvrage.com/schedule.php?show_yesterday=1. ]]> The.Lovely.Bones.2009.1080p.BluRay.x264.Dual.Audio.Hindi2.0.Org.Eng.maverick http://glodls.to/torrent.php?id=2337128 http://glodls.to/torrent.php?id=2337128 Wed, 29 Mar 2017 22:00:29 +0100 Movies The Bold And The Beautiful - S30 Ep7553 - 2017-03-29 http://glodls.to/torrent.php?id=2337127 http://glodls.to/torrent.php?id=2337127 Wed, 29 Mar 2017 22:00:29 +0100 TV http://www.tvrage.com/schedule.php?show_yesterday=1. ]]> After.Porn.Ends.2.2017.DVDRip.x264-FRAGMENT http://glodls.to/torrent.php?id=2337126 http://glodls.to/torrent.php?id=2337126 Wed, 29 Mar 2017 22:00:26 +0100 Movies Benidorm.S09E04.HDTV.x264-RiVER[ettv] http://glodls.to/torrent.php?id=2337125 http://glodls.to/torrent.php?id=2337125 Wed, 29 Mar 2017 22:00:26 +0100 TV http://www.tvrage.com/schedule.php?show_yesterday=1. ]]> The Institute (2017) 1920 x 1080 x264 Phun Psyz http://glodls.to/torrent.php?id=2337124 http://glodls.to/torrent.php?id=2337124 Wed, 29 Mar 2017 22:00:25 +0100 Movies El Chema Temporada 1 Capitulo 75 http://glodls.to/torrent.php?id=2337123 http://glodls.to/torrent.php?id=2337123 Wed, 29 Mar 2017 22:00:21 +0100 TV http://www.tvrage.com/schedule.php?show_yesterday=1. ]]> Bad Santa 2 (2016) [UNRATED] 2160p UltraHD Blu-Ray x264 DTS-HD MA - ABI http://glodls.to/torrent.php?id=2337122 http://glodls.to/torrent.php?id=2337122 Wed, 29 Mar 2017 22:00:20 +0100 Movies El Chema Temporada 1 Capitulo 76 http://glodls.to/torrent.php?id=2337120 http://glodls.to/torrent.php?id=2337120 Wed, 29 Mar 2017 22:00:18 +0100 TV http://www.tvrage.com/schedule.php?show_yesterday=1. ]]> BBC.Gravity.and.Me.The.Force.That.Shapes.Our.Lives.720p.HDTV.x264.AAC .mp4 http://glodls.to/torrent.php?id=2337119 http://glodls.to/torrent.php?id=2337119 Wed, 29 Mar 2017 22:00:18 +0100 Movies El Chema Temporada 1 Capitulo 77 http://glodls.to/torrent.php?id=2337114 http://glodls.to/torrent.php?id=2337114 Wed, 29 Mar 2017 22:00:15 +0100 TV http://www.tvrage.com/schedule.php?show_yesterday=1. ]]> THE AUDIENCE NTLive 06.13.2013 HDTV 1080p AC3 MME x265.AAC.ACai http://glodls.to/torrent.php?id=2337113 http://glodls.to/torrent.php?id=2337113 Wed, 29 Mar 2017 22:00:13 +0100 Movies El Chema Temporada 1 Capitulo 78 http://glodls.to/torrent.php?id=2337109 http://glodls.to/torrent.php?id=2337109 Wed, 29 Mar 2017 22:00:10 +0100 TV http://www.tvrage.com/schedule.php?show_yesterday=1. ]]> El Chema Temporada 1 Capitulo 79 http://glodls.to/torrent.php?id=2337101 http://glodls.to/torrent.php?id=2337101 Wed, 29 Mar 2017 22:00:07 +0100 TV http://www.tvrage.com/schedule.php?show_yesterday=1. ]]> El Chema Temporada 1 Capitulo 80 http://glodls.to/torrent.php?id=2337096 http://glodls.to/torrent.php?id=2337096 Wed, 29 Mar 2017 22:00:03 +0100 TV http://www.tvrage.com/schedule.php?show_yesterday=1. ]]> Mrs Mischief - Upskirt Mommy http://glodls.to/torrent.php?id=2337095 http://glodls.to/torrent.php?id=2337095 Wed, 29 Mar 2017 21:59:17 +0100 Adult XXX
[b]Date[/b]: 2017
[b]Cast[/b]: Mrs Mischief
[b]Genre[/b]: MILF, Mature, Virtual, Solo
[b]Name[/b]: Upskirt Mommy


[b]Video[/b]: AVC, 1920x1080, 29.970 FPS, 5000 kb/s
[b]Audio[/b]: AAC LC, 48.0 kHz, 2 channels, 192 kb/s
[b]Format[/b]: mp4
[b]Duration[/b]: 00:11:08
]]>
The.Tiger.Hunter.2016.BRRip.XviD.AC3-EVO http://glodls.to/torrent.php?id=2337094 http://glodls.to/torrent.php?id=2337094 Wed, 29 Mar 2017 21:46:58 +0100 Movies [color=red][b]
The.Tiger.Hunter.2016.BRRip.XviD.AC3-EVO

[/b][/color]


IMDb: http://www.imdb.com/title/tt3853830/


[img]https://images-na.ssl-images-amazon.com/images/M/MV5BNzA4MWM3NTQtODYzNC00YTgyLWEyNmItYjI0NzBiNzgxMzA5XkEyXkFqcGdeQXVyNzg5OTk2OA@@._V1_SX300.jpg[/img]


[url=https://boltimg.com/image/t52z][img]https://boltimg.com/images/t52z.png[/img][/url]



[color=green][b]
General

(Duration): 1h 33mn
(FileSize): 1.37 GiB



Audio

(Format): AC-3 - Audio Coding 3
(Codec): AC3



Video

(Format): MPEG-4 Visual -
(Media): video/MP4V-ES
(Format): XviD
(Resolution): 720x302 px
(AspectRatio): 2.40:1
(FrameRate): 23.976 fps




[/b][/color]


[url=https://boltimg.com/image/tzTE][img]https://boltimg.com/images/tzTE.png[/img][/url]



[color=purple][b](Click to enlarge)[/b][/color]

[url=https://boltimg.com/image/guLvc][img]https://boltimg.com/images/guLvc.th.jpg[/img][/url] [url=https://boltimg.com/image/guZuu][img]https://boltimg.com/images/guZuu.th.jpg[/img][/url] [url=https://boltimg.com/image/gurn3][img]https://boltimg.com/images/gurn3.th.jpg[/img][/url] [url=https://boltimg.com/image/guxqn][img]https://boltimg.com/images/guxqn.th.jpg[/img][/url] [url=https://boltimg.com/image/guEfA][img]https://boltimg.com/images/guEfA.th.jpg[/img][/url] [url=https://boltimg.com/image/guHSk][img]https://boltimg.com/images/guHSk.th.jpg[/img][/url]

[/center]
]]>
[ATKGirlfriends] Moka Mora (Las Vegas 2-3) http://glodls.to/torrent.php?id=2337093 http://glodls.to/torrent.php?id=2337093 Wed, 29 Mar 2017 21:44:48 +0100 Adult XXX
Genre :- Anal, POV, Blowjob, Handjob, Creampie, 1080p]

Screenshot :-

[url=http://imgtorrnt.in/view.php?id=WTIzmX6][color=green] View Screen 1 [/color] [/url]

[url=http://imgtorrnt.in/view.php?id=8ynAnQ6][color=green] View Screen 2 [/color] [/url]

[img]http://i.imgur.com/WTIzmX6.jpg[/img]

]]>
The.Tiger.Hunter.2016.BRRip.XviD.AC3-EVO[PRiME] http://glodls.to/torrent.php?id=2337092 http://glodls.to/torrent.php?id=2337092 Wed, 29 Mar 2017 21:37:47 +0100 Movies The.Tiger.Hunter.2016.BRRip.XviD.AC3-EVO[PRiME]

ImDb: [URL]http://www.imdb.com/title/tt3853830[/URL]

[url=https://www.sparrowpics.com/image/LwB][img]https://www.sparrowpics.com/images/2015/12/10/Info.png[/img][/url]

[color=green]Complete name : The.Tiger.Hunter.2016.BRRip.XviD.AC3-EVO[PRiME].avi
Format : AVI
Format/Info : Audio Video Interleave
Format profile : OpenDML
Format settings : rec
File size : 1.37 GiB
Duration : 1 h 33 min
Overall bit rate : 2 100 kb/s
Writing application : AVI-Mux GUI 1.17.8.3, Feb 16 201019:42:50

Video
ID : 0
Format : MPEG-4 Visual
Format profile : Advanced Simple@L5
Format settings, BVOP : 2
Format settings, QPel : No
Format settings, GMC : No warppoints
Format settings, Matrix : Default (H.263)
Muxing mode : Packed bitstream
Codec ID : XVID
Codec ID/Hint : XviD
Duration : 1 h 33 min
Bit rate : 1 647 kb/s
Width : 720 pixels
Height : 302 pixels
Display aspect ratio : 2.40:1
Frame rate : 23.976 (24000/1001) FPS
Color space : YUV
Chroma subsampling : 4:2:0
Bit depth : 8 bits
Scan type : Progressive
Compression mode : Lossy
Bits/(Pixel*Frame) : 0.316
Stream size : 1.08 GiB (78%)
Writing library : XviD 66

Audio
ID : 1
Format : AC-3
Format/Info : Audio Coding 3
Mode extension : CM (complete main)
Format settings, Endianness : Big
Codec ID : 2000
Duration : 1 h 33 min
Bit rate mode : Constant
Bit rate : 448 kb/s
Channel(s) : 6 channels
Channel positions : Front: L C R, Side: L R, LFE
Sampling rate : 48.0 kHz
Frame rate : 31.250 FPS (1536 spf)
Compression mode : Lossy
Stream size : 300 MiB (21%)
Alignment : Aligned on interleaves
Interleave, duration : 64 ms (1.53 video frames)
Interleave, preload duration : 192 ms[/color]

[url=https://www.sparrowpics.com/image/UYe][img]https://www.sparrowpics.com/images/2015/12/10/Screens.png[/img][/url]

[color=red]Click Image To View Full Size[/color]

[URL=https://www.sparrowpics.com/image/DpFNx][IMG]https://www.sparrowpics.com/images/2017/03/30/DpFNx.th.jpg[/IMG][/URL]
[URL=https://www.sparrowpics.com/image/DpJQN][b]Click To View Screenshot[/b][/URL]
[URL=https://www.sparrowpics.com/image/DpMPY][b]Click To View Screenshot[/b][/URL]
[URL=https://www.sparrowpics.com/image/DpUr9][b]Click To View Screenshot[/b][/URL]

[/center] ]]>
My Ass 3 XXX DVDRip x264-CiCXXX http://glodls.to/torrent.php?id=2337091 http://glodls.to/torrent.php?id=2337091 Wed, 29 Mar 2017 21:24:02 +0100 Adult XXX
[b]Screenshots:[/b]

[url]http://imgkings.com/img-58dc25f3e9ae2.html[/url]

[url]http://imgkings.com/img-58dc25f3e441b.html[/url]

[url]http://imgkings.com/img-58dc25f3dc3a9.html[/url]

[url]http://imgkings.com/img-58dc25ee938e7.html[/url] ]]>
Khloe Kapri - Perverted Voyeur Stepbrother http://glodls.to/torrent.php?id=2337089 http://glodls.to/torrent.php?id=2337089 Wed, 29 Mar 2017 21:20:56 +0100 Adult XXX
[b]Date[/b]: 2017
[b]Cast[/b]: Khloe Kapri
[b]Genre[/b]: Teen, Amateur, Blonde, Blowjob, Cum in Mouth, Natural Tits, POV, Facial, Hardcore, All Sex
[b]Name[/b]: Perverted Voyeur Stepbrother


[b]Video[/b]: AVC, 960x540, 29.970 FPS, 1500 kb/s
[b]Audio[/b]: AAC LC, 48.0 kHz, 2 channels, 128 kb/s
[b]Format[/b]: mp4
[b]Duration[/b]: 00:54:03
]]>
[LegalPorno] 7on1 Double Anal GangBang Selvaggia- with Sperma Party - GIO340 http://glodls.to/torrent.php?id=2337088 http://glodls.to/torrent.php?id=2337088 Wed, 29 Mar 2017 21:13:40 +0100 Adult XXX
Genre :- Stockings, Blowjob, Group Sex, Anal, Gonzo, 720p]

Screenshot :-

[url=http://imgtorrnt.in/view.php?id=j0PLNEk][color=green] View Screen 1 [/color] [/url]

[url=http://imgtorrnt.in/view.php?id=sYTEgYf][color=green] View Screen 2 [/color] [/url]

[img]http://i.imgur.com/j0PLNEk.jpg[/img]

]]>
The.Bye.Bye.Man.2017.DVDRip.XviD.AC3-iFT http://glodls.to/torrent.php?id=2337087 http://glodls.to/torrent.php?id=2337087 Wed, 29 Mar 2017 21:13:04 +0100 Movies [color=red][b]
The.Bye.Bye.Man.2017.DVDRip.XviD.AC3-iFT

[/b][/color]


IMDb: http://www.imdb.com/title/tt4030600/


[img]https://images-na.ssl-images-amazon.com/images/M/MV5BMTcxOTE5NzQwNF5BMl5BanBnXkFtZTgwOTMzMTc1ODE@._V1_SX300.jpg[/img]


[url=https://boltimg.com/image/t52z][img]https://boltimg.com/images/t52z.png[/img][/url]



[color=green][b]
General

(Duration): 1h 36mn
(FileSize): 1.57 GiB



Audio

(Format): AC-3 - Audio Coding 3
(Codec): AC3



Video

(Format): MPEG-4 Visual -
(Media): video/MP4V-ES
(Format): XviD
(Resolution): 720x384 px
(AspectRatio): 1.85:1
(FrameRate): 23.976 fps




[/b][/color]


[url=https://boltimg.com/image/tzTE][img]https://boltimg.com/images/tzTE.png[/img][/url]



[color=purple][b](Click to enlarge)[/b][/color]

[url=https://boltimg.com/image/gongW][img]https://boltimg.com/images/gongW.th.jpg[/img][/url] [url=https://boltimg.com/image/gospx][img]https://boltimg.com/images/gospx.th.jpg[/img][/url] [url=https://boltimg.com/image/goFGX][img]https://boltimg.com/images/goFGX.th.jpg[/img][/url] [url=https://boltimg.com/image/gocow][img]https://boltimg.com/images/gocow.th.jpg[/img][/url] [url=https://boltimg.com/image/goinL][img]https://boltimg.com/images/goinL.th.jpg[/img][/url] [url=https://boltimg.com/image/gopkp][img]https://boltimg.com/images/gopkp.th.jpg[/img][/url]

[/center]
]]>
FuckingMachines 17 03 29 Kristina Rose XXX XviD SD http://glodls.to/torrent.php?id=2337086 http://glodls.to/torrent.php?id=2337086 Wed, 29 Mar 2017 21:11:55 +0100 Adult XXX
[b]Screenshots:[/b]

[url]http://imgkings.com/img-58dc231ca8cdc.html[/url]

[url]http://imgkings.com/img-58dc231ca46bc.html[/url]

[url]http://imgkings.com/img-58dc231ca0072.html[/url]

[url]http://imgkings.com/img-58dc231a1f2f8.html[/url] ]]>
Blink-182 - Misery (Single) (2017) [Mp3~320kbps] http://glodls.to/torrent.php?id=2337085 http://glodls.to/torrent.php?id=2337085 Wed, 29 Mar 2017 21:05:48 +0100 Music
[size=4][color=green]Genre :: Pop Punk

Quality :: MP3, 320kbps CBR

Tracklist

1. Misery [/color]
[/size]
[/center]
]]>
The.Challenge.S29E09.WEB.x264.mp4 http://glodls.to/torrent.php?id=2337042 http://glodls.to/torrent.php?id=2337042 Wed, 29 Mar 2017 21:00:14 +0100 TV http://www.tvrage.com/schedule.php?show_yesterday=1. ]]> The.Daily.Show.2017.03.28.Helene.Cooper.HDTV.x264-CROOKS[ettv] http://glodls.to/torrent.php?id=2337041 http://glodls.to/torrent.php?id=2337041 Wed, 29 Mar 2017 21:00:12 +0100 TV http://www.tvrage.com/schedule.php?show_yesterday=1. ]]> Carson.Daly.2017.03.28.Adam.Pally.HDTV.x264-CROOKS[ettv] http://glodls.to/torrent.php?id=2337040 http://glodls.to/torrent.php?id=2337040 Wed, 29 Mar 2017 21:00:10 +0100 TV http://www.tvrage.com/schedule.php?show_yesterday=1. ]]> The Repair Shop S01E3 http://glodls.to/torrent.php?id=2337039 http://glodls.to/torrent.php?id=2337039 Wed, 29 Mar 2017 21:00:09 +0100 TV http://www.tvrage.com/schedule.php?show_yesterday=1. ]]> At.Midnight.2017.03.28.HDTV.x264-CROOKS[ettv] http://glodls.to/torrent.php?id=2337038 http://glodls.to/torrent.php?id=2337038 Wed, 29 Mar 2017 21:00:07 +0100 TV http://www.tvrage.com/schedule.php?show_yesterday=1. ]]> Fixer.Upper.S04E16.The.Colossal.Crawford.Reno.480p.WEB-DL.x264-RMTeam [imass] http://glodls.to/torrent.php?id=2337037 http://glodls.to/torrent.php?id=2337037 Wed, 29 Mar 2017 21:00:05 +0100 TV http://www.tvrage.com/schedule.php?show_yesterday=1. ]]> Pop! The Science of Bubbles http://glodls.to/torrent.php?id=2337036 http://glodls.to/torrent.php?id=2337036 Wed, 29 Mar 2017 21:00:04 +0100 TV http://www.tvrage.com/schedule.php?show_yesterday=1. ]]>