GloDLS.to - Download Movies, TV, Games and Other Torrents Free RSS 2.0enGloDLS.to - Download Movies, TV, Games and Other Torrents FreeGloDLS.to - Download Movies, TV, Games and Other Torrents Free RSS Feedhttp://glodls.toCopyright GloDLS.to - Download Movies, TV, Games and Other Torrents FreeThu, 21 Sep 2017 00:37:02 +0100 InfernalRestraints.17.02.17.Blossom.Cherried.Blossom.Part.2.XXX.720p.x264-GAGViD[N1C] http://glodls.to/torrent.php?id=2806329 http://glodls.to/torrent.php?id=2806329 Wed, 20 Sep 2017 23:35:21 +0100 Adult XXX InfernalRestraints.17.02.17.Blossom.Cherried.Blossom.Part.2.XXX.720p.x264-GAGViD


[Format]: MPEG-4
[Duration]: 29mn 30s
[Resolution]: 1 280 x 720 pixels
[Display aspect ratio]: 16:9
[Frame rate mode]: Constant
[Frame rate]: 23.976 fps
[Original frame rate]: 25.000 fps


[color=green][b]#N1C -> To avoid fakes, ALWAYS check that the torrent was added by NO1CARES[/b][/color]




[color=green][b]Help us by donating with Bitcoin: 1Pgwp16gmLHmPzgjJLxZnMw7YeqiUekUoe[/b][/color]

[b]Screens...[/b]
[url]http://HotImage.uk/img-59c2f9ad83102.html[/url]
[url]http://HotImage.uk/img-59c2f9ad8f39b.html[/url]
[url]http://HotImage.uk/img-59c2f9ad98991.html[/url]
[url]http://HotImage.uk/img-59c2f9ada0691.html[/url] ]]>
InfernalRestraints.16.07.22.Violet.Monroe.Pull.XXX.720p.MP4-KTR[N1C] http://glodls.to/torrent.php?id=2806322 http://glodls.to/torrent.php?id=2806322 Wed, 20 Sep 2017 23:33:13 +0100 Adult XXX InfernalRestraints.16.07.22.Violet.Monroe.Pull.XXX.720p.MP4-KTR


[Format]: MPEG-4
[Duration]: 50mn 32s
[Resolution]: 1 280 x 720 pixels
[Display aspect ratio]: 16:9
[Frame rate mode]: Constant
[Frame rate]: 23.976 fps
[Original frame rate]: 25.000 fps


[color=green][b]#N1C -> To avoid fakes, ALWAYS check that the torrent was added by NO1CARES[/b][/color]




[color=green][b]Help us by donating with Bitcoin: 1Pgwp16gmLHmPzgjJLxZnMw7YeqiUekUoe[/b][/color]

[b]Screens...[/b]
[url]http://HotImage.uk/img-59c2f87054608.html[/url]
[url]http://HotImage.uk/img-59c2f87060639.html[/url]
[url]http://HotImage.uk/img-59c2f87069b5d.html[/url]
[url]http://HotImage.uk/img-59c2f87071ca2.html[/url] ]]>
InfernalRestraints.16.07.15.Amy.Nicole.Shocked.XXX.720p.MP4-KTR[N1C] http://glodls.to/torrent.php?id=2806319 http://glodls.to/torrent.php?id=2806319 Wed, 20 Sep 2017 23:32:13 +0100 Adult XXX InfernalRestraints.16.07.15.Amy.Nicole.Shocked.XXX.720p.MP4-KTR


[Format]: MPEG-4
[Duration]: 45mn 37s
[Resolution]: 1 280 x 720 pixels
[Display aspect ratio]: 16:9
[Frame rate mode]: Constant
[Frame rate]: 23.976 fps
[Original frame rate]: 25.000 fps


[color=green][b]#N1C -> To avoid fakes, ALWAYS check that the torrent was added by NO1CARES[/b][/color]




[color=green][b]Help us by donating with Bitcoin: 1Pgwp16gmLHmPzgjJLxZnMw7YeqiUekUoe[/b][/color]

[b]Screens...[/b]
[url]http://HotImage.uk/img-59c2f784a5af9.html[/url]
[url]http://HotImage.uk/img-59c2f784b1e05.html[/url]
[url]http://HotImage.uk/img-59c2f784bb09d.html[/url]
[url]http://HotImage.uk/img-59c2f784c2f62.html[/url] ]]>
InfernalRestraints.16.07.29.Nikki.Darling.Cuntorted.XXX.720p.MP4-KTR[N1C] http://glodls.to/torrent.php?id=2806317 http://glodls.to/torrent.php?id=2806317 Wed, 20 Sep 2017 23:31:13 +0100 Adult XXX InfernalRestraints.16.07.29.Nikki.Darling.Cuntorted.XXX.720p.MP4-KTR


[Format]: MPEG-4
[Duration]: 39mn 18s
[Resolution]: 1 280 x 720 pixels
[Display aspect ratio]: 16:9
[Frame rate mode]: Constant
[Frame rate]: 23.976 fps
[Original frame rate]: 25.000 fps


[color=green][b]#N1C -> To avoid fakes, ALWAYS check that the torrent was added by NO1CARES[/b][/color]




[color=green][b]Help us by donating with Bitcoin: 1Pgwp16gmLHmPzgjJLxZnMw7YeqiUekUoe[/b][/color]

[b]Screens...[/b]
[url]http://HotImage.uk/img-59c2fa1e67276.html[/url]
[url]http://HotImage.uk/img-59c2fa1e7380f.html[/url]
[url]http://HotImage.uk/img-59c2fa1e7ce25.html[/url]
[url]http://HotImage.uk/img-59c2fa1e850af.html[/url] ]]>
They.Shoot.Horses.Dont.They.1969.720p.BluRay.x264-x0r http://glodls.to/torrent.php?id=2806316 http://glodls.to/torrent.php?id=2806316 Wed, 20 Sep 2017 23:30:08 +0100 Movies
[b]ImDb: [URL]http://www.imdb.com/title/tt0065088[/URL][/b]

[url=https://www.sparrowpics.com/image/kbFon][img]https://www.sparrowpics.com/images/2017/07/04/kbFon.png[/img][/url]

[b]Complete name : They.Shoot.Horses.Dont.They.1969.720p.BluRay.x264-x0r.mkv
Format : Matroska
Format version : Version 4 / Version 2
File size : 2.74 GiB
Duration : 2 h 0 min
Overall bit rate : 3 266 kb/s
Movie name : They.Shoot.Horses.Dont.They.1969.720p.BluRay.x264-x0r
Encoded date : UTC 2017-09-20 22:23:36
Writing application : mkvmerge v7.7.0 ('Six Voices') 64bit built on Mar 1 2015 01:50:05
Writing library : libebml v1.3.1 + libmatroska v1.4.2

Video
ID : 1
Format : AVC
Format/Info : Advanced Video Codec
Format profile : High@L4
Format settings, CABAC : Yes
Format settings, ReFrames : 8 frames
Codec ID : V_MPEG4/ISO/AVC
Duration : 2 h 0 min
Bit rate : 2 560 kb/s
Width : 1 280 pixels
Height : 720 pixels
Display aspect ratio : 16:9
Frame rate mode : Constant
Frame rate : 23.976 FPS
Color space : YUV
Chroma subsampling : 4:2:0
Bit depth : 8 bits
Scan type : Progressive
Bits/(Pixel*Frame) : 0.116
Stream size : 2.15 GiB (78%)
Writing library : x264 core 130 r2273 b3065e6
Encoding settings : cabac=1 / ref=8 / deblock=1:-2:-2 / analyse=0x3:0x133 / me=umh / subme=10 / psy=1 / psy_rd=1.00:0.25 / mixed_ref=0 / me_range=32 / chroma_me=1 / trellis=2 / 8x8dct=1 / cqm=0 / deadzone=6,6 / fast_pskip=0 / chroma_qp_offset=-4 / threads=12 / lookahead_threads=1 / sliced_threads=0 / nr=0 / decimate=1 / interlaced=0 / bluray_compat=0 / constrained_intra=0 / bframes=4 / b_pyramid=2 / b_adapt=2 / b_bias=0 / direct=3 / weightb=1 / open_gop=0 / weightp=2 / keyint=240 / keyint_min=24 / scenecut=40 / intra_refresh=0 / rc_lookahead=10 / rc=2pass / mbtree=1 / bitrate=2560 / ratetol=1.0 / qcomp=0.00 / qpmin=0 / qpmax=69 / qpstep=4 / cplxblur=20.0 / qblur=0.5 / vbv_maxrate=20000 / vbv_bufsize=25000 / nal_hrd=none / ip_ratio=1.10 / aq=1:0.90
Language : English
Default : Yes
Forced : No
Color range : Limited
Color primaries : BT.709
Transfer characteristics : BT.709
Matrix coefficients : BT.709

Audio #1
ID : 2
Format : AC-3
Format/Info : Audio Coding 3
Format settings, Endianness : Big
Codec ID : A_AC3
Duration : 2 h 0 min
Bit rate mode : Constant
Bit rate : 192 kb/s
Channel(s) : 2 channels
Channel positions : Front: L R
Sampling rate : 48.0 kHz
Frame rate : 31.250 FPS (1536 spf)
Bit depth : 16 bits
Compression mode : Lossy
Stream size : 165 MiB (6%)
Title : Stereo
Language : English
Service kind : Complete Main
Default : Yes
Forced : No

Audio #2
ID : 3
Format : AC-3
Format/Info : Audio Coding 3
Format settings, Endianness : Big
Codec ID : A_AC3
Duration : 2 h 0 min
Bit rate mode : Constant
Bit rate : 256 kb/s
Channel(s) : 2 channels
Channel positions : Front: L R
Sampling rate : 48.0 kHz
Frame rate : 31.250 FPS (1536 spf)
Bit depth : 16 bits
Compression mode : Lossy
Stream size : 220 MiB (8%)
Title : Commentray #1
Language : English
Service kind : Complete Main
Default : No
Forced : No

Audio #3
ID : 4
Format : AC-3
Format/Info : Audio Coding 3
Format settings, Endianness : Big
Codec ID : A_AC3
Duration : 2 h 0 min
Bit rate mode : Constant
Bit rate : 256 kb/s
Channel(s) : 2 channels
Channel positions : Front: L R
Sampling rate : 48.0 kHz
Frame rate : 31.250 FPS (1536 spf)
Bit depth : 16 bits
Compression mode : Lossy
Stream size : 220 MiB (8%)
Title : Commentary #2
Language : English
Service kind : Complete Main
Default : No
Forced : No

Text
ID : 5
Format : UTF-8
Codec ID : S_TEXT/UTF8
Codec ID/Info : UTF-8 Plain Text
Duration : 1 h 58 min
Bit rate : 53 b/s
Count of elements : 1305
Stream size : 46.5 KiB (0%)
Language : English
Default : Yes
Forced : No

Menu
00:00:00.000 : en:Chapter 1
00:10:23.765 : en:Chapter 2
00:23:45.232 : en:Chapter 3
00:39:48.945 : en:Chapter 4
00:57:34.509 : en:Chapter 5
01:12:25.608 : en:Chapter 6
01:27:58.456 : en:Chapter 7
01:42:57.855 : en:Chapter 8[/b]

[url=https://www.sparrowpics.com/image/kbJ5y][img]https://www.sparrowpics.com/images/2017/07/04/kbJ5y.png[/img][/url]

[URL=https://www.sparrowpics.com/image/wHe1Z][IMG]https://www.sparrowpics.com/images/2017/09/21/wHe1Z.th.jpg[/IMG][/URL]

[URL=https://www.sparrowpics.com/image/wHlTx][b]Click To View Screenshot[/b][/URL]

[URL=https://www.sparrowpics.com/image/wHtlN][b]Click To View Screenshot[/b][/URL]

[URL=https://www.sparrowpics.com/image/wH8xY][b]Click To View Screenshot[/b][/URL][/center] ]]>
InfernalRestraints.16.07.01.Dee.Williams.Hook.Up.XXX.720p.MP4-KTR[N1C] http://glodls.to/torrent.php?id=2806310 http://glodls.to/torrent.php?id=2806310 Wed, 20 Sep 2017 23:24:15 +0100 Adult XXX InfernalRestraints.16.07.01.Dee.Williams.Hook.Up.XXX.720p.MP4-KTR


[Format]: MPEG-4
[Duration]: 47mn 30s
[Resolution]: 1 280 x 720 pixels
[Display aspect ratio]: 16:9
[Frame rate mode]: Constant
[Frame rate]: 23.976 fps
[Original frame rate]: 25.000 fps


[color=green][b]#N1C -> To avoid fakes, ALWAYS check that the torrent was added by NO1CARES[/b][/color]




[color=green][b]Help us by donating with Bitcoin: 1Pgwp16gmLHmPzgjJLxZnMw7YeqiUekUoe[/b][/color]

[b]Screens...[/b]
[url]http://HotImage.uk/img-59c2f864ce7af.html[/url]
[url]http://HotImage.uk/img-59c2f864daef1.html[/url]
[url]http://HotImage.uk/img-59c2f864e4327.html[/url]
[url]http://HotImage.uk/img-59c2f864ec24e.html[/url] ]]>
Call of Duty Black Ops II MULTi5-PLAZA http://glodls.to/torrent.php?id=2806309 http://glodls.to/torrent.php?id=2806309 Wed, 20 Sep 2017 23:21:46 +0100 Games
[quote]
P-R-E-S-E-N-T-S

Call of Duty: Black Ops II *MULTi5* (c) Activision
Release Date: 09/2017 Protection: Steam+CEG
Discs: 1 Genre: Action

Pushing the boundaries of what fans have come to expect from the
record-setting entertainment franchise, Call of Duty: Black Ops II
propels players into a near future, 21st Century Cold War, where
technology and weapons have converged to create a new generation of
warfare

For more info go to:[url] http://store.steampowered.com/app/202970/[/url]

1. Mount ISO
2. Install the game
3. Copy crack from the PLAZA folder
4. Play!

Notes: Game is updated to the latest version

Included languages:

> English
> German
> French
> Italian
> Spanish

Included DLC:

> Call of Duty: Black Ops II - Soundtrack

General Notes:

Block the game's exe in your firewall to prevent the game from
trying to go online
If you install games to your systemdrive, it may be necessary
to run this game with admin privileges instead

CODEX - CPY - ENiGMA - SiMPLEX - ACTiVATED - ADDONiA

Coming soon[/quote]

[img]http://cdn.akamai.steamstatic.com/steam/apps/202970/ss_ac2194dfb623d65003f54450fb1824e5f181b27e.1920x1080.jpg?t=1492633735[/img]
[img]http://cdn.akamai.steamstatic.com/steam/apps/202970/ss_aa5f28d5d5fb0956c5de65b0a3e2a115b8283321.1920x1080.jpg?t=1492633735[/img]
[img]http://cdn.akamai.steamstatic.com/steam/apps/202970/ss_0f03487cfbad1a33d5a5a1717da70d9c5c6c516f.1920x1080.jpg?t=1492633735[/img] ]]>
Watch.What.Happens.Live.2017.09.19.Captain.Lee.and.Jax.Taylor.WEB.x264-TBS[ettv] http://glodls.to/torrent.php?id=2806301 http://glodls.to/torrent.php?id=2806301 Wed, 20 Sep 2017 23:15:49 +0100 TV Et TV Shows


Watch.What.Happens.Live.2017.09.19.Captain.Lee.and.Jax.Taylor.WEB.x264-TBS


[Format]: Matroska
[Duration]: 21mn 48s
[Resolution]: 960 x 544 pixels
[Display aspect ratio]: 16:9
[Frame rate mode]: Constant
[Frame rate]: 29.970 fps


[color=green][b]#ettv -> To avoid fakes, ALWAYS check that the torrent was added by ettv[/b][/color]




[color=green][b]To keep us going Support us by donating Bitcoin: 3MDamEmgKepqagtQe9eEdQ3NCrWEWjhoL5[/b][/color]

[b]Screens...[/b]
[url=https://extraimage.net/image/Tla8][img]https://extraimage.net/images/2017/09/21/d96ed103ba49348850c078378b8dec5c.th.jpg[/img][/url] ]]>
InfernalRestraints.16.06.24.Bella.Rossi.Bellas.Birthday.XXX.720p.MP4-KTR[N1C] http://glodls.to/torrent.php?id=2806298 http://glodls.to/torrent.php?id=2806298 Wed, 20 Sep 2017 23:14:27 +0100 Adult XXX InfernalRestraints.16.06.24.Bella.Rossi.Bellas.Birthday.XXX.720p.MP4-KTR


[Format]: MPEG-4
[Duration]: 49mn 58s
[Resolution]: 1 280 x 720 pixels
[Display aspect ratio]: 16:9
[Frame rate mode]: Constant
[Frame rate]: 23.976 fps
[Original frame rate]: 25.000 fps


[color=green][b]#N1C -> To avoid fakes, ALWAYS check that the torrent was added by NO1CARES[/b][/color]




[color=green][b]Help us by donating with Bitcoin: 1Pgwp16gmLHmPzgjJLxZnMw7YeqiUekUoe[/b][/color]

[b]Screens...[/b]
[url]http://HotImage.uk/img-59c2f4aaa75b1.html[/url]
[url]http://HotImage.uk/img-59c2f4aab3828.html[/url]
[url]http://HotImage.uk/img-59c2f4aabcd95.html[/url]
[url]http://HotImage.uk/img-59c2f4aac4c7c.html[/url] ]]>
InfernalRestraints.16.06.17.Endza.Adair.And.Goldie.Rush.A.Tale.Of.Two.Riggers.XXX.720p.MP4-KTR[N1C] http://glodls.to/torrent.php?id=2806295 http://glodls.to/torrent.php?id=2806295 Wed, 20 Sep 2017 23:12:33 +0100 Adult XXX InfernalRestraints.16.06.17.Endza.Adair.And.Goldie.Rush.A.Tale.Of.Two.Riggers.XXX.720p.MP4-KTR


[Format]: MPEG-4
[Duration]: 51mn 28s
[Resolution]: 1 280 x 720 pixels
[Display aspect ratio]: 16:9
[Frame rate mode]: Constant
[Frame rate]: 23.976 fps
[Original frame rate]: 25.000 fps


[color=green][b]#N1C -> To avoid fakes, ALWAYS check that the torrent was added by NO1CARES[/b][/color]




[color=green][b]Help us by donating with Bitcoin: 1Pgwp16gmLHmPzgjJLxZnMw7YeqiUekUoe[/b][/color]

[b]Screens...[/b]
[url]http://HotImage.uk/img-59c2f409575bf.html[/url]
[url]http://HotImage.uk/img-59c2f409632e5.html[/url]
[url]http://HotImage.uk/img-59c2f4096c56f.html[/url]
[url]http://HotImage.uk/img-59c2f40974453.html[/url] ]]>
InfernalRestraints.16.06.10.April.Rain.Tin.Cans.XXX.720p.MP4-KTR[N1C] http://glodls.to/torrent.php?id=2806285 http://glodls.to/torrent.php?id=2806285 Wed, 20 Sep 2017 23:06:13 +0100 Adult XXX InfernalRestraints.16.06.10.April.Rain.Tin.Cans.XXX.720p.MP4-KTR


[Format]: MPEG-4
[Duration]: 46mn 45s
[Resolution]: 1 280 x 720 pixels
[Display aspect ratio]: 16:9
[Frame rate mode]: Constant
[Frame rate]: 23.976 fps
[Original frame rate]: 25.000 fps


[color=green][b]#N1C -> To avoid fakes, ALWAYS check that the torrent was added by NO1CARES[/b][/color]




[color=green][b]Help us by donating with Bitcoin: 1Pgwp16gmLHmPzgjJLxZnMw7YeqiUekUoe[/b][/color]

[b]Screens...[/b]
[url]http://HotImage.uk/img-59c2f2b2b4779.html[/url]
[url]http://HotImage.uk/img-59c2f2b2c0877.html[/url]
[url]http://HotImage.uk/img-59c2f2b2c9c59.html[/url]
[url]http://HotImage.uk/img-59c2f2b2d1e09.html[/url] ]]>
InfernalRestraints.16.06.03.Yhivi.Railed.XXX.720p.MP4-KTR[N1C] http://glodls.to/torrent.php?id=2806282 http://glodls.to/torrent.php?id=2806282 Wed, 20 Sep 2017 23:04:25 +0100 Adult XXX InfernalRestraints.16.06.03.Yhivi.Railed.XXX.720p.MP4-KTR


[Format]: MPEG-4
[Duration]: 53mn 3s
[Resolution]: 1 280 x 720 pixels
[Display aspect ratio]: 16:9
[Frame rate mode]: Constant
[Frame rate]: 23.976 fps
[Original frame rate]: 25.000 fps


[color=green][b]#N1C -> To avoid fakes, ALWAYS check that the torrent was added by NO1CARES[/b][/color]




[color=green][b]Help us by donating with Bitcoin: 1Pgwp16gmLHmPzgjJLxZnMw7YeqiUekUoe[/b][/color]

[b]Screens...[/b]
[url]http://HotImage.uk/img-59c2f212841c3.html[/url]
[url]http://HotImage.uk/img-59c2f212903be.html[/url]
[url]http://HotImage.uk/img-59c2f21299a65.html[/url]
[url]http://HotImage.uk/img-59c2f212a1b66.html[/url] ]]>
InfernalRestraints.16.05.20.Syren.De.Mer.The.Art.Of.Suffering.XXX.720p.MP4-KTR http://glodls.to/torrent.php?id=2806281 http://glodls.to/torrent.php?id=2806281 Wed, 20 Sep 2017 23:02:14 +0100 Adult XXX
{Duration} : 42 min 6 s
{Format} : MPEG-4
{Resolution} : 1280 x 720 pixels
{Aspect Ratio} : 16:9
{Frame Rate} : 23.976 fps

[b]Thumbnails : -[/b]


[URL=https://www.sizzlingclicks.com/image/hLSei][IMG]https://www.sizzlingclicks.com/images/2017/09/20/hLSei.th.jpg[/IMG][/URL]
[b][URL]https://www.sizzlingclicks.com/image/hLSei[/URL][/b]
[b][URL]https://www.sizzlingclicks.com/image/hLlXs[/URL][/b]
[b][URL]https://www.sizzlingclicks.com/image/hLolL[/URL][/b]
[b][URL]https://www.sizzlingclicks.com/image/hLkwr[/URL][/b] ]]>
InfernalRestraints.16.05.13.Dresden.Denial.XXX.720p.MP4-KTR http://glodls.to/torrent.php?id=2806280 http://glodls.to/torrent.php?id=2806280 Wed, 20 Sep 2017 23:02:11 +0100 Adult XXX
{Duration} : 52 min 34 s
{Format} : MPEG-4
{Resolution} : 1280 x 720 pixels
{Aspect Ratio} : 16:9
{Frame Rate} : 23.976 fps

[b]Thumbnails : -[/b]


[URL=https://www.sizzlingclicks.com/image/hLCNB][IMG]https://www.sizzlingclicks.com/images/2017/09/20/hLCNB.th.jpg[/IMG][/URL]
[b][URL]https://www.sizzlingclicks.com/image/hLCNB[/URL][/b]
[b][URL]https://www.sizzlingclicks.com/image/hLc7Z[/URL][/b]
[b][URL]https://www.sizzlingclicks.com/image/hLHi7[/URL][/b]
[b][URL]https://www.sizzlingclicks.com/image/hLMPd[/URL][/b] ]]>
InfernalRestraints.16.05.12.Kali.Kane.Humiliaton.Slut.XXX.720p.MP4-KTR http://glodls.to/torrent.php?id=2806279 http://glodls.to/torrent.php?id=2806279 Wed, 20 Sep 2017 23:02:07 +0100 Adult XXX
{Duration} : 1 h 9 min
{Format} : MPEG-4
{Resolution} : 1280 x 720 pixels
{Aspect Ratio} : 16:9
{Frame Rate} : 23.976 fps

[b]Thumbnails : -[/b]


[URL=https://www.sizzlingclicks.com/image/hLplA][IMG]https://www.sizzlingclicks.com/images/2017/09/20/hLplA.th.jpg[/IMG][/URL]
[b][URL]https://www.sizzlingclicks.com/image/hLplA[/URL][/b]
[b][URL]https://www.sizzlingclicks.com/image/hLuvW[/URL][/b]
[b][URL]https://www.sizzlingclicks.com/image/hLZqj[/URL][/b]
[b][URL]https://www.sizzlingclicks.com/image/hL6c8[/URL][/b] ]]>
InfernalRestraints.16.05.06.Billy.Nyx.Eighteen.And.Curious.XXX.720p.MP4-KTR http://glodls.to/torrent.php?id=2806278 http://glodls.to/torrent.php?id=2806278 Wed, 20 Sep 2017 23:02:03 +0100 Adult XXX
{Duration} : 43 min 4 s
{Format} : MPEG-4
{Resolution} : 1280 x 720 pixels
{Aspect Ratio} : 16:9
{Frame Rate} : 23.976 fps

[b]Thumbnails : -[/b]


[URL=https://www.sizzlingclicks.com/image/hLri5][IMG]https://www.sizzlingclicks.com/images/2017/09/20/hLri5.th.jpg[/IMG][/URL]
[b][URL]https://www.sizzlingclicks.com/image/hLri5[/URL][/b]
[b][URL]https://www.sizzlingclicks.com/image/hLzPX[/URL][/b]
[b][URL]https://www.sizzlingclicks.com/image/hLEGJ[/URL][/b]
[b][URL]https://www.sizzlingclicks.com/image/hLiXY[/URL][/b] ]]>
InfernalRestraints.16.04.29.London.River.Orgasmageddon.2.XXX.720p.MP4-KTR http://glodls.to/torrent.php?id=2806276 http://glodls.to/torrent.php?id=2806276 Wed, 20 Sep 2017 23:01:57 +0100 Adult XXX
{Duration} : 1 h 0 min
{Format} : MPEG-4
{Resolution} : 1280 x 720 pixels
{Aspect Ratio} : 16:9
{Frame Rate} : 23.976 fps

[b]Thumbnails : -[/b]


[URL=https://www.sizzlingclicks.com/image/hLUg2][IMG]https://www.sizzlingclicks.com/images/2017/09/20/hLUg2.th.jpg[/IMG][/URL]
[b][URL]https://www.sizzlingclicks.com/image/hLUg2[/URL][/b]
[b][URL]https://www.sizzlingclicks.com/image/hLnCR[/URL][/b]
[b][URL]https://www.sizzlingclicks.com/image/hLINE[/URL][/b]
[b][URL]https://www.sizzlingclicks.com/image/hLX4e[/URL][/b] ]]>
BBC Panorama 2017 Germanys New Nazis 720p HDTV x264 AAC mkv http://glodls.to/torrent.php?id=2806226 http://glodls.to/torrent.php?id=2806226 Wed, 20 Sep 2017 23:00:06 +0100 TV http://www.tvrage.com/schedule.php?show_yesterday=1. ]]> Back S01E03 720p HDTV x264-MTB http://glodls.to/torrent.php?id=2806225 http://glodls.to/torrent.php?id=2806225 Wed, 20 Sep 2017 23:00:04 +0100 TV http://www.tvrage.com/schedule.php?show_yesterday=1. ]]> InfernalRestraints.16.05.27.Zoey.Laine.Trophy.Catch.XXX.720p.MP4-KTR[N1C] http://glodls.to/torrent.php?id=2806219 http://glodls.to/torrent.php?id=2806219 Wed, 20 Sep 2017 22:57:28 +0100 Adult XXX InfernalRestraints.16.05.27.Zoey.Laine.Trophy.Catch.XXX.720p.MP4-KTR


[Format]: MPEG-4
[Duration]: 47mn 22s
[Resolution]: 1 280 x 720 pixels
[Display aspect ratio]: 16:9
[Frame rate mode]: Constant
[Frame rate]: 23.976 fps
[Original frame rate]: 25.000 fps


[color=green][b]#N1C -> To avoid fakes, ALWAYS check that the torrent was added by NO1CARES[/b][/color]




[color=green][b]Help us by donating with Bitcoin: 1Pgwp16gmLHmPzgjJLxZnMw7YeqiUekUoe[/b][/color]

[b]Screens...[/b]
[url]http://HotImage.uk/img-59c2f0ac30967.html[/url]
[url]http://HotImage.uk/img-59c2f0ac3bd72.html[/url]
[url]http://HotImage.uk/img-59c2f0ac44aa0.html[/url]
[url]http://HotImage.uk/img-59c2f0ac4c70a.html[/url] ]]>
InfernalRestraints.16.05.13.Dresden.Denial.XXX.720p.MP4-KTR[N1C] http://glodls.to/torrent.php?id=2806214 http://glodls.to/torrent.php?id=2806214 Wed, 20 Sep 2017 22:53:41 +0100 Adult XXX InfernalRestraints.16.05.13.Dresden.Denial.XXX.720p.MP4-KTR


[Format]: MPEG-4
[Duration]: 52mn 34s
[Resolution]: 1 280 x 720 pixels
[Display aspect ratio]: 16:9
[Frame rate mode]: Constant
[Frame rate]: 23.976 fps
[Original frame rate]: 25.000 fps


[color=green][b]#N1C -> To avoid fakes, ALWAYS check that the torrent was added by NO1CARES[/b][/color]




[color=green][b]Help us by donating with Bitcoin: 1Pgwp16gmLHmPzgjJLxZnMw7YeqiUekUoe[/b][/color]

[b]Screens...[/b]
[url]http://HotImage.uk/img-59c2ef51e0f13.html[/url]
[url]http://HotImage.uk/img-59c2ef51ed285.html[/url]
[url]http://HotImage.uk/img-59c2ef52022da.html[/url]
[url]http://HotImage.uk/img-59c2ef520a171.html[/url] ]]>
Date.of.the.Dead.2015.WEBRip.x264-iNTENSO http://glodls.to/torrent.php?id=2806209 http://glodls.to/torrent.php?id=2806209 Wed, 20 Sep 2017 22:40:31 +0100 TV
[url=https://www.sparrowpics.com/image/kbFon][img]https://www.sparrowpics.com/images/2017/07/04/kbFon.png[/img][/url]

[b]Complete name : Date.of.the.Dead.2015.WEBRip.x264-iNTENSO.mkv
Format : Matroska
Format version : Version 4 / Version 2
File size : 630 MiB
Duration : 1 h 37 min
Overall bit rate : 903 kb/s
Encoded date : UTC 2017-09-19 13:01:36
Writing application : mkvmerge v8.3.0 ('Over the Horizon') 64bit
Writing library : libebml v1.3.1 + libmatroska v1.4.2

Video
ID : 1
Format : AVC
Format/Info : Advanced Video Codec
Format profile : High@L3.1
Format settings, CABAC : Yes
Format settings, ReFrames : 9 frames
Codec ID : V_MPEG4/ISO/AVC
Duration : 1 h 37 min
Bit rate : 712 kb/s
Width : 720 pixels
Height : 404 pixels
Display aspect ratio : 16:9
Frame rate mode : Constant
Frame rate : 23.976 (24000/1001) FPS
Color space : YUV
Chroma subsampling : 4:2:0
Bit depth : 8 bits
Scan type : Progressive
Bits/(Pixel*Frame) : 0.102
Stream size : 497 MiB (79%)
Writing library : x264 core 152 r2851 ba24899
Encoding settings : cabac=1 / ref=9 / deblock=1:-3:-3 / analyse=0x3:0x113 / me=umh / subme=8 / psy=1 / psy_rd=1.00:0.15 / mixed_ref=1 / me_range=16 / chroma_me=1 / trellis=2 / 8x8dct=1 / cqm=0 / deadzone=21,11 / fast_pskip=0 / chroma_qp_offset=-3 / threads=12 / lookahead_threads=2 / sliced_threads=0 / nr=0 / decimate=1 / interlaced=0 / bluray_compat=0 / constrained_intra=0 / bframes=3 / b_pyramid=2 / b_adapt=2 / b_bias=0 / direct=3 / weightb=1 / open_gop=0 / weightp=2 / keyint=240 / keyint_min=23 / scenecut=40 / intra_refresh=0 / rc_lookahead=40 / rc=crf / mbtree=1 / crf=19.0 / qcomp=0.60 / qpmin=0 / qpmax=69 / qpstep=4 / ip_ratio=1.40 / aq=3:0.90
Language : English
Default : Yes
Forced : No
Color range : Limited
Matrix coefficients : BT.709

Audio
ID : 2
Format : AAC
Format/Info : Advanced Audio Codec
Format profile : LC
Codec ID : A_AAC
Duration : 1 h 37 min
Bit rate : 192 kb/s
Channel(s) : 2 channels
Channel positions : Front: L R
Sampling rate : 48.0 kHz
Frame rate : 46.875 FPS (1024 spf)
Compression mode : Lossy
Stream size : 132 MiB (21%)
Language : English
Default : Yes
Forced : No[/b]

[url=https://www.sparrowpics.com/image/kbJ5y][img]https://www.sparrowpics.com/images/2017/07/04/kbJ5y.png[/img][/url]

[URL=https://tv.sparrowpics.com/image/gHAA2][IMG]https://tv.sparrowpics.com/images/2017/09/20/gHAA2.th.jpg[/IMG][/URL]

[URL=https://tv.sparrowpics.com/image/gHTqg][b]Click To View Screenshot[/b][/URL]

[URL=https://tv.sparrowpics.com/image/gHZL5][b]Click To View Screenshot[/b][/URL]

[URL=https://tv.sparrowpics.com/image/gHiXw][b]Click To View Screenshot[/b][/URL][/center] ]]>
InfernalRestraints.16.05.20.Syren.De.Mer.The.Art.Of.Suffering.XXX.720p.MP4-KTR[N1C] http://glodls.to/torrent.php?id=2806206 http://glodls.to/torrent.php?id=2806206 Wed, 20 Sep 2017 22:39:15 +0100 Adult XXX InfernalRestraints.16.05.20.Syren.De.Mer.The.Art.Of.Suffering.XXX.720p.MP4-KTR


[Format]: MPEG-4
[Duration]: 42mn 6s
[Resolution]: 1 280 x 720 pixels
[Display aspect ratio]: 16:9
[Frame rate mode]: Constant
[Frame rate]: 23.976 fps
[Original frame rate]: 25.000 fps


[color=green][b]#N1C -> To avoid fakes, ALWAYS check that the torrent was added by NO1CARES[/b][/color]




[color=green][b]Help us by donating with Bitcoin: 1Pgwp16gmLHmPzgjJLxZnMw7YeqiUekUoe[/b][/color]

[b]Screens...[/b]
[url]http://HotImage.uk/img-59c2edd3484ed.html[/url]
[url]http://HotImage.uk/img-59c2edd354a58.html[/url]
[url]http://HotImage.uk/img-59c2edd35de43.html[/url]
[url]http://HotImage.uk/img-59c2edd365e72.html[/url] ]]>
InfernalRestraints.16.04.22.Electra.Rayne.Master.Is.Watching.XXX.720p.MP4-KTR http://glodls.to/torrent.php?id=2806204 http://glodls.to/torrent.php?id=2806204 Wed, 20 Sep 2017 22:38:16 +0100 Adult XXX
{Duration} : 48 min 29 s
{Format} : MPEG-4
{Resolution} : 1280 x 720 pixels
{Aspect Ratio} : 16:9
{Frame Rate} : 23.976 fps

[b]Thumbnails : -[/b]


[URL=https://www.sizzlingclicks.com/image/hL3GC][IMG]https://www.sizzlingclicks.com/images/2017/09/20/hL3GC.th.jpg[/IMG][/URL]
[b][URL]https://www.sizzlingclicks.com/image/hL3GC[/URL][/b]
[b][URL]https://www.sizzlingclicks.com/image/hLgX0[/URL][/b]
[b][URL]https://www.sizzlingclicks.com/image/hLqYK[/URL][/b]
[b][URL]https://www.sizzlingclicks.com/image/hL1vu[/URL][/b] ]]>
InfernalRestraints.16.04.15.Ashley.Lane.Ashleys.Fun.Time.XXX.720p.MP4-KTR http://glodls.to/torrent.php?id=2806203 http://glodls.to/torrent.php?id=2806203 Wed, 20 Sep 2017 22:38:12 +0100 Adult XXX
{Duration} : 43 min 35 s
{Format} : MPEG-4
{Resolution} : 1280 x 720 pixels
{Aspect Ratio} : 16:9
{Frame Rate} : 23.976 fps

[b]Thumbnails : -[/b]


[URL=https://www.sizzlingclicks.com/image/hF2Kw][IMG]https://www.sizzlingclicks.com/images/2017/09/20/hF2Kw.th.jpg[/IMG][/URL]
[b][URL]https://www.sizzlingclicks.com/image/hF2Kw[/URL][/b]
[b][URL]https://www.sizzlingclicks.com/image/hF44M[/URL][/b]
[b][URL]https://www.sizzlingclicks.com/image/hFViq[/URL][/b]
[b][URL]https://www.sizzlingclicks.com/image/hL0Lb[/URL][/b] ]]>
InfernalRestraints.16.04.08.Amber.Nevada.On.Display.XXX.720p.MP4-KTR http://glodls.to/torrent.php?id=2806202 http://glodls.to/torrent.php?id=2806202 Wed, 20 Sep 2017 22:38:08 +0100 Adult XXX
{Duration} : 40 min 6 s
{Format} : MPEG-4
{Resolution} : 1280 x 720 pixels
{Aspect Ratio} : 16:9
{Frame Rate} : 23.976 fps

[b]Thumbnails : -[/b]


[URL=https://www.sizzlingclicks.com/image/hFGYr][IMG]https://www.sizzlingclicks.com/images/2017/09/20/hFGYr.th.jpg[/IMG][/URL]
[b][URL]https://www.sizzlingclicks.com/image/hFGYr[/URL][/b]
[b][URL]https://www.sizzlingclicks.com/image/hFeW9[/URL][/b]
[b][URL]https://www.sizzlingclicks.com/image/hFsgo[/URL][/b]
[b][URL]https://www.sizzlingclicks.com/image/hFyCn[/URL][/b] ]]>
InfernalRestraints.16.04.01.Anna.Tyler.Wiggle.Room.XXX.720p.MP4-KTR http://glodls.to/torrent.php?id=2806201 http://glodls.to/torrent.php?id=2806201 Wed, 20 Sep 2017 22:38:04 +0100 Adult XXX
{Duration} : 40 min 2 s
{Format} : MPEG-4
{Resolution} : 1280 x 720 pixels
{Aspect Ratio} : 16:9
{Frame Rate} : 23.976 fps

[b]Thumbnails : -[/b]


[URL=https://www.sizzlingclicks.com/image/hFwad][IMG]https://www.sizzlingclicks.com/images/2017/09/20/hFwad.th.jpg[/IMG][/URL]
[b][URL]https://www.sizzlingclicks.com/image/hFwad[/URL][/b]
[b][URL]https://www.sizzlingclicks.com/image/hFDLi[/URL][/b]
[b][URL]https://www.sizzlingclicks.com/image/hFJ9s[/URL][/b]
[b][URL]https://www.sizzlingclicks.com/image/hF9IL[/URL][/b] ]]>
InfernalRestraints.16.05.12.Kali.Kane.Humiliaton.Slut.XXX.720p.MP4-KTR[N1C] http://glodls.to/torrent.php?id=2806194 http://glodls.to/torrent.php?id=2806194 Wed, 20 Sep 2017 22:35:12 +0100 Adult XXX InfernalRestraints.16.05.12.Kali.Kane.Humiliaton.Slut.XXX.720p.MP4-KTR


[Format]: MPEG-4
[Duration]: 1h 9mn
[Resolution]: 1 280 x 720 pixels
[Display aspect ratio]: 16:9
[Frame rate mode]: Constant
[Frame rate]: 23.976 fps
[Original frame rate]: 25.000 fps


[color=green][b]#N1C -> To avoid fakes, ALWAYS check that the torrent was added by NO1CARES[/b][/color]




[color=green][b]Help us by donating with Bitcoin: 1Pgwp16gmLHmPzgjJLxZnMw7YeqiUekUoe[/b][/color]

[b]Screens...[/b]
[url]http://HotImage.uk/img-59c2ecf63b3e5.html[/url]
[url]http://HotImage.uk/img-59c2ecf65f7f4.html[/url]
[url]http://HotImage.uk/img-59c2ecf66836a.html[/url]
[url]http://HotImage.uk/img-59c2ecf66fc19.html[/url] ]]>
InfernalRestraints.16.05.06.Billy.Nyx.Eighteen.And.Curious.XXX.720p.MP4-KTR[N1C] http://glodls.to/torrent.php?id=2806189 http://glodls.to/torrent.php?id=2806189 Wed, 20 Sep 2017 22:33:11 +0100 Adult XXX InfernalRestraints.16.05.06.Billy.Nyx.Eighteen.And.Curious.XXX.720p.MP4-KTR


[Format]: MPEG-4
[Duration]: 43mn 4s
[Resolution]: 1 280 x 720 pixels
[Display aspect ratio]: 16:9
[Frame rate mode]: Constant
[Frame rate]: 23.976 fps
[Original frame rate]: 25.000 fps


[color=green][b]#N1C -> To avoid fakes, ALWAYS check that the torrent was added by NO1CARES[/b][/color]




[color=green][b]Help us by donating with Bitcoin: 1Pgwp16gmLHmPzgjJLxZnMw7YeqiUekUoe[/b][/color]

[b]Screens...[/b]
[url]http://HotImage.uk/img-59c2ec3e9becb.html[/url]
[url]http://HotImage.uk/img-59c2ec3ed803c.html[/url]
[url]http://HotImage.uk/img-59c2ec3eddddc.html[/url]
[url]http://HotImage.uk/img-59c2ec3ee39a8.html[/url] ]]>
InfernalRestraints.16.04.29.London.River.Orgasmageddon.2.XXX.720p.MP4-KTR[N1C] http://glodls.to/torrent.php?id=2806187 http://glodls.to/torrent.php?id=2806187 Wed, 20 Sep 2017 22:32:53 +0100 Adult XXX InfernalRestraints.16.04.29.London.River.Orgasmageddon.2.XXX.720p.MP4-KTR


[Format]: MPEG-4
[Duration]: 1h 0mn
[Resolution]: 1 280 x 720 pixels
[Display aspect ratio]: 16:9
[Frame rate mode]: Constant
[Frame rate]: 23.976 fps
[Original frame rate]: 25.000 fps


[color=green][b]#N1C -> To avoid fakes, ALWAYS check that the torrent was added by NO1CARES[/b][/color]




[color=green][b]Help us by donating with Bitcoin: 1Pgwp16gmLHmPzgjJLxZnMw7YeqiUekUoe[/b][/color]

[b]Screens...[/b]
[url]http://HotImage.uk/img-59c2ebda5d149.html[/url]
[url]http://HotImage.uk/img-59c2ebda68774.html[/url]
[url]http://HotImage.uk/img-59c2ebda71275.html[/url]
[url]http://HotImage.uk/img-59c2ebda78d42.html[/url] ]]>
InfernalRestraints.16.03.25.India.Summer.Calisthenics.XXX.720p.MP4-KTR http://glodls.to/torrent.php?id=2806178 http://glodls.to/torrent.php?id=2806178 Wed, 20 Sep 2017 22:22:43 +0100 Adult XXX
{Duration} : 45 min 37 s
{Format} : MPEG-4
{Resolution} : 1280 x 720 pixels
{Aspect Ratio} : 16:9
{Frame Rate} : 23.976 fps

[b]Thumbnails : -[/b]


[URL=https://www.sizzlingclicks.com/image/hFQg8][IMG]https://www.sizzlingclicks.com/images/2017/09/20/hFQg8.th.jpg[/IMG][/URL]
[b][URL]https://www.sizzlingclicks.com/image/hFQg8[/URL][/b]
[b][URL]https://www.sizzlingclicks.com/image/hFb6B[/URL][/b]
[b][URL]https://www.sizzlingclicks.com/image/hFxKZ[/URL][/b]
[b][URL]https://www.sizzlingclicks.com/image/hFW27[/URL][/b] ]]>
InfernalRestraints.16.03.22.Sister.Dee.The.Fly.XXX.720p.MP4-KTR http://glodls.to/torrent.php?id=2806177 http://glodls.to/torrent.php?id=2806177 Wed, 20 Sep 2017 22:22:40 +0100 Adult XXX
{Duration} : 44 min 39 s
{Format} : MPEG-4
{Resolution} : 1280 x 720 pixels
{Aspect Ratio} : 16:9
{Frame Rate} : 23.976 fps

[b]Thumbnails : -[/b]


[URL=https://www.sizzlingclicks.com/image/hFT9Y][IMG]https://www.sizzlingclicks.com/images/2017/09/20/hFT9Y.th.jpg[/IMG][/URL]
[b][URL]https://www.sizzlingclicks.com/image/hFT9Y[/URL][/b]
[b][URL]https://www.sizzlingclicks.com/image/hFtIA[/URL][/b]
[b][URL]https://www.sizzlingclicks.com/image/hFKSW[/URL][/b]
[b][URL]https://www.sizzlingclicks.com/image/hFNWj[/URL][/b] ]]>
InfernalRestraints.16.03.18.Barbary.Rose.Toe.Tease.XXX.720p.MP4-KTR http://glodls.to/torrent.php?id=2806176 http://glodls.to/torrent.php?id=2806176 Wed, 20 Sep 2017 22:22:36 +0100 Adult XXX
{Duration} : 1 h 0 min
{Format} : MPEG-4
{Resolution} : 1280 x 720 pixels
{Aspect Ratio} : 16:9
{Frame Rate} : 23.976 fps

[b]Thumbnails : -[/b]


[URL=https://www.sizzlingclicks.com/image/hF5te][IMG]https://www.sizzlingclicks.com/images/2017/09/20/hF5te.th.jpg[/IMG][/URL]
[b][URL]https://www.sizzlingclicks.com/image/hF5te[/URL][/b]
[b][URL]https://www.sizzlingclicks.com/image/hFF25[/URL][/b]
[b][URL]https://www.sizzlingclicks.com/image/hFPaX[/URL][/b]
[b][URL]https://www.sizzlingclicks.com/image/hFRFJ[/URL][/b] ]]>
InfernalRestraints.16.04.22.Electra.Rayne.Master.Is.Watching.XXX.720p.MP4-KTR[N1C] http://glodls.to/torrent.php?id=2806175 http://glodls.to/torrent.php?id=2806175 Wed, 20 Sep 2017 22:22:23 +0100 Adult XXX InfernalRestraints.16.04.22.Electra.Rayne.Master.Is.Watching.XXX.720p.MP4-KTR


[Format]: MPEG-4
[Duration]: 48mn 29s
[Resolution]: 1 280 x 720 pixels
[Display aspect ratio]: 16:9
[Frame rate mode]: Constant
[Frame rate]: 23.976 fps
[Original frame rate]: 25.000 fps


[color=green][b]#N1C -> To avoid fakes, ALWAYS check that the torrent was added by NO1CARES[/b][/color]




[color=green][b]Help us by donating with Bitcoin: 1Pgwp16gmLHmPzgjJLxZnMw7YeqiUekUoe[/b][/color]

[b]Screens...[/b]
[url]http://HotImage.uk/img-59c2e9e6062bc.html[/url]
[url]http://HotImage.uk/img-59c2e9e611ad2.html[/url]
[url]http://HotImage.uk/img-59c2e9e61aa33.html[/url]
[url]http://HotImage.uk/img-59c2e9e62287b.html[/url] ]]>
InfernalRestraints.16.04.15.Ashley.Lane.Ashleys.Fun.Time.XXX.720p.MP4-KTR[N1C] http://glodls.to/torrent.php?id=2806167 http://glodls.to/torrent.php?id=2806167 Wed, 20 Sep 2017 22:20:23 +0100 Adult XXX InfernalRestraints.16.04.15.Ashley.Lane.Ashleys.Fun.Time.XXX.720p.MP4-KTR


[Format]: MPEG-4
[Duration]: 43mn 35s
[Resolution]: 1 280 x 720 pixels
[Display aspect ratio]: 16:9
[Frame rate mode]: Constant
[Frame rate]: 23.976 fps
[Original frame rate]: 25.000 fps


[color=green][b]#N1C -> To avoid fakes, ALWAYS check that the torrent was added by NO1CARES[/b][/color]




[color=green][b]Help us by donating with Bitcoin: 1Pgwp16gmLHmPzgjJLxZnMw7YeqiUekUoe[/b][/color]

[b]Screens...[/b]
[url]http://HotImage.uk/img-59c2e96c69f6c.html[/url]
[url]http://HotImage.uk/img-59c2e96c761a0.html[/url]
[url]http://HotImage.uk/img-59c2e96c7f572.html[/url]
[url]http://HotImage.uk/img-59c2e96c87062.html[/url] ]]>
InfernalRestraints.16.04.08.Amber.Nevada.On.Display.XXX.720p.MP4-KTR[N1C] http://glodls.to/torrent.php?id=2806163 http://glodls.to/torrent.php?id=2806163 Wed, 20 Sep 2017 22:19:15 +0100 Adult XXX InfernalRestraints.16.04.08.Amber.Nevada.On.Display.XXX.720p.MP4-KTR


[Format]: MPEG-4
[Duration]: 40mn 6s
[Resolution]: 1 280 x 720 pixels
[Display aspect ratio]: 16:9
[Frame rate mode]: Constant
[Frame rate]: 23.976 fps
[Original frame rate]: 25.000 fps


[color=green][b]#N1C -> To avoid fakes, ALWAYS check that the torrent was added by NO1CARES[/b][/color]




[color=green][b]Help us by donating with Bitcoin: 1Pgwp16gmLHmPzgjJLxZnMw7YeqiUekUoe[/b][/color]

[b]Screens...[/b]
[url]http://HotImage.uk/img-59c2e919c8e11.html[/url]
[url]http://HotImage.uk/img-59c2e919d4e8c.html[/url]
[url]http://HotImage.uk/img-59c2e919ddf52.html[/url]
[url]http://HotImage.uk/img-59c2e919e5df4.html[/url] ]]>
Goon Last of the Enforcers 2017 BRRip XviD AC3-EVO http://glodls.to/torrent.php?id=2806157 http://glodls.to/torrent.php?id=2806157 Wed, 20 Sep 2017 22:17:57 +0100 Movies COVER:
https://tinizo.com/upload/small/2017/09/20/59c2e8ef978b6.jpg

ACTORS:
Seann William Scott, Alison Pill, Marc-André Grondin, Liev Schreiber, Wyatt Russell, Kim Coates,

RELEASED:
1 September 2017

IMDB: https://www.imdb.com/title/tt2417712/



Size: 1482608644 bytes (1.38 GiB), duration: 01:41:03, avg.bitrate: 1956 kb/s
Audio: ac3, 48000 Hz, 5:1, 448 kb/s
Video: mpeg4, yuv420p, 720x304, 23.98 fps(r)




SCREENS:
[url=https://tinizo.com/img-59c2e8efd5684.html[/url]

[url]https://tinizo.com/img-59c2e8efd9606.html[/url]

[url]https://tinizo.com/img-59c2e8efdc6dc.html[/url]


DOWNLOAD AND ENJOY.

KEEP IT FOR LONG SEEDING TO HELP OTHERS


Thanks to : EVO
Movie Share ]]>
InfernalRestraints.16.04.01.Anna.Tyler.Wiggle.Room.XXX.720p.MP4-KTR[N1C] http://glodls.to/torrent.php?id=2806156 http://glodls.to/torrent.php?id=2806156 Wed, 20 Sep 2017 22:17:10 +0100 Adult XXX InfernalRestraints.16.04.01.Anna.Tyler.Wiggle.Room.XXX.720p.MP4-KTR


[Format]: MPEG-4
[Duration]: 40mn 2s
[Resolution]: 1 280 x 720 pixels
[Display aspect ratio]: 16:9
[Frame rate mode]: Constant
[Frame rate]: 23.976 fps
[Original frame rate]: 25.000 fps


[color=green][b]#N1C -> To avoid fakes, ALWAYS check that the torrent was added by NO1CARES[/b][/color]




[color=green][b]Help us by donating with Bitcoin: 1Pgwp16gmLHmPzgjJLxZnMw7YeqiUekUoe[/b][/color]

[b]Screens...[/b]
[url]http://HotImage.uk/img-59c2e8c2b3491.html[/url]
[url]http://HotImage.uk/img-59c2e8c2bf41d.html[/url]
[url]http://HotImage.uk/img-59c2e8c2c857b.html[/url]
[url]http://HotImage.uk/img-59c2e8c2d0013.html[/url] ]]>
InfernalRestraints.16.03.25.India.Summer.Calisthenics.XXX.720p.MP4-KTR[N1C] http://glodls.to/torrent.php?id=2806150 http://glodls.to/torrent.php?id=2806150 Wed, 20 Sep 2017 22:14:20 +0100 Adult XXX InfernalRestraints.16.03.25.India.Summer.Calisthenics.XXX.720p.MP4-KTR


[Format]: MPEG-4
[Duration]: 45mn 37s
[Resolution]: 1 280 x 720 pixels
[Display aspect ratio]: 16:9
[Frame rate mode]: Constant
[Frame rate]: 23.976 fps
[Original frame rate]: 25.000 fps


[color=green][b]#N1C -> To avoid fakes, ALWAYS check that the torrent was added by NO1CARES[/b][/color]




[color=green][b]Help us by donating with Bitcoin: 1Pgwp16gmLHmPzgjJLxZnMw7YeqiUekUoe[/b][/color]

[b]Screens...[/b]
[url]http://HotImage.uk/img-59c2e816c9b1b.html[/url]
[url]http://HotImage.uk/img-59c2e816ed535.html[/url]
[url]http://HotImage.uk/img-59c2e816f2d09.html[/url]
[url]http://HotImage.uk/img-59c2e8170440c.html[/url] ]]>
Snatched (2017) 720p BluRay x264 [Dual-Audio][Hindi 5 1 - English 5 1] ESubs - Downloadhub http://glodls.to/torrent.php?id=2806141 http://glodls.to/torrent.php?id=2806141 Wed, 20 Sep 2017 22:10:56 +0100 Movies
[img]https://extraimage.net/images/2017/05/10/0f98922bd359e7eaf5f6ad12fc86c758.png[/img]

[img]https://www.hon3yhd.com/bitbucket/GPSOFT_BITCOIN.png[/img]:

[b]88bb0cc1-678d-47dc-83c0-e60c68329def[/b]

[code][b]MOVIE INFO:
http://www.imdb.com/title/tt2334871/
[FORMAT]:…………………….[ Matroska
[CODEC]:………………[ x264
[GENRE]:……………………[ Action, Comedy  
[FILE SIZE]:……………………[ 848MB
[RESOLUTION]:……………….[ 1280x636
[LANGUAGE]:…………………[ Hindi (Rohit Thanks) ,English
[SUBTITLES]:………………..[ English
[ENCODER]:…………..[ Downloadhub
[SOURCE]:…………………..[ GECKOS Thanks[/b][/code]


[Medai Info]: [url]https://linkshub.club/index.php?ID=159172185121900-paste[/url]

[img]https://www.jiopic.com/images/2017/09/21/IRw8h60.jpg[/img]

[img]https://www.hon3yhd.com/bitbucket/GPSOFT_BITCOIN.png[/img]:

[b]88bb0cc1-678d-47dc-83c0-e60c68329def[/b][/center] ]]>
InfernalRestraints.16.03.22.Sister.Dee.The.Fly.XXX.720p.MP4-KTR[N1C] http://glodls.to/torrent.php?id=2806140 http://glodls.to/torrent.php?id=2806140 Wed, 20 Sep 2017 22:10:25 +0100 Adult XXX InfernalRestraints.16.03.22.Sister.Dee.The.Fly.XXX.720p.MP4-KTR


[Format]: MPEG-4
[Duration]: 44mn 39s
[Resolution]: 1 280 x 720 pixels
[Display aspect ratio]: 16:9
[Frame rate mode]: Constant
[Frame rate]: 23.976 fps
[Original frame rate]: 25.000 fps


[color=green][b]#N1C -> To avoid fakes, ALWAYS check that the torrent was added by NO1CARES[/b][/color]




[color=green][b]Help us by donating with Bitcoin: 1Pgwp16gmLHmPzgjJLxZnMw7YeqiUekUoe[/b][/color]

[b]Screens...[/b]
[url]http://HotImage.uk/img-59c2e71ab58e3.html[/url]
[url]http://HotImage.uk/img-59c2e71ac057a.html[/url]
[url]http://HotImage.uk/img-59c2e71ac91db.html[/url]
[url]http://HotImage.uk/img-59c2e71ad0be9.html[/url] ]]>
InfernalRestraints.16.03.18.Barbary.Rose.Toe.Tease.XXX.720p.MP4-KTR[N1C] http://glodls.to/torrent.php?id=2806139 http://glodls.to/torrent.php?id=2806139 Wed, 20 Sep 2017 22:10:13 +0100 Adult XXX InfernalRestraints.16.03.18.Barbary.Rose.Toe.Tease.XXX.720p.MP4-KTR


[Format]: MPEG-4
[Duration]: 1h 0mn
[Resolution]: 1 280 x 720 pixels
[Display aspect ratio]: 16:9
[Frame rate mode]: Constant
[Frame rate]: 23.976 fps
[Original frame rate]: 25.000 fps


[color=green][b]#N1C -> To avoid fakes, ALWAYS check that the torrent was added by NO1CARES[/b][/color]




[color=green][b]Help us by donating with Bitcoin: 1Pgwp16gmLHmPzgjJLxZnMw7YeqiUekUoe[/b][/color]

[b]Screens...[/b]
[url]http://HotImage.uk/img-59c2e6f96e1b8.html[/url]
[url]http://HotImage.uk/img-59c2e6f97a1e5.html[/url]
[url]http://HotImage.uk/img-59c2e6f9835ea.html[/url]
[url]http://HotImage.uk/img-59c2e6f98b56e.html[/url] ]]>
InfernalRestraints.16.03.11.Violet.Monroe.Cheater.Cheater.Pussy.Eater.XXX.720p.MP4-KTR http://glodls.to/torrent.php?id=2806138 http://glodls.to/torrent.php?id=2806138 Wed, 20 Sep 2017 22:10:11 +0100 Adult XXX
{Duration} : 41 min 57 s
{Format} : MPEG-4
{Resolution} : 1280 x 720 pixels
{Aspect Ratio} : 16:9
{Frame Rate} : 23.976 fps

[b]Thumbnails : -[/b]


[URL=https://www.sizzlingclicks.com/image/hFSSu][IMG]https://www.sizzlingclicks.com/images/2017/09/20/hFSSu.th.jpg[/IMG][/URL]
[b][URL]https://www.sizzlingclicks.com/image/hFSSu[/URL][/b]
[b][URL]https://www.sizzlingclicks.com/image/hFYx2[/URL][/b]
[b][URL]https://www.sizzlingclicks.com/image/hFo8R[/URL][/b]
[b][URL]https://www.sizzlingclicks.com/image/hFk6E[/URL][/b] ]]>
InfernalRestraints.16.03.04.Devilynne.The.Calling.XXX.720p.MP4-KTR http://glodls.to/torrent.php?id=2806137 http://glodls.to/torrent.php?id=2806137 Wed, 20 Sep 2017 22:10:05 +0100 Adult XXX
{Duration} : 48 min 45 s
{Format} : MPEG-4
{Resolution} : 1280 x 720 pixels
{Aspect Ratio} : 16:9
{Frame Rate} : 23.976 fps

[b]Thumbnails : -[/b]


[URL=https://www.sizzlingclicks.com/image/hFCEb][IMG]https://www.sizzlingclicks.com/images/2017/09/20/hFCEb.th.jpg[/IMG][/URL]
[b][URL]https://www.sizzlingclicks.com/image/hFCEb[/URL][/b]
[b][URL]https://www.sizzlingclicks.com/image/hFcFC[/URL][/b]
[b][URL]https://www.sizzlingclicks.com/image/hFj90[/URL][/b]
[b][URL]https://www.sizzlingclicks.com/image/hFMnK[/URL][/b] ]]>
MILF.2010.720p.BluRay.x264-x0r http://glodls.to/torrent.php?id=2806128 http://glodls.to/torrent.php?id=2806128 Wed, 20 Sep 2017 22:05:47 +0100 Movies
[b]ImDb: [URL]http://www.imdb.com/title/tt1721283[/URL][/b]

[url=https://www.sparrowpics.com/image/kbFon][img]https://www.sparrowpics.com/images/2017/07/04/kbFon.png[/img][/url]

[b]Complete name : MILF.2010.720p.BluRay.x264-x0r.mkv
Format : Matroska
Format version : Version 4 / Version 2
File size : 1.85 GiB
Duration : 1 h 28 min
Overall bit rate : 3 000 kb/s
Movie name : MILF.2010.720p.BluRay.x264-x0r
Encoded date : UTC 2017-09-20 20:32:40
Writing application : mkvmerge v7.7.0 ('Six Voices') 64bit built on Mar 1 2015 01:50:05
Writing library : libebml v1.3.1 + libmatroska v1.4.2

Video
ID : 1
Format : AVC
Format/Info : Advanced Video Codec
Format profile : Main@L4.1
Format settings, CABAC : Yes
Format settings, ReFrames : 8 frames
Codec ID : V_MPEG4/ISO/AVC
Duration : 1 h 28 min
Bit rate : 2 560 kb/s
Width : 1 280 pixels
Height : 720 pixels
Display aspect ratio : 16:9
Frame rate mode : Constant
Frame rate : 23.976 FPS
Color space : YUV
Chroma subsampling : 4:2:0
Bit depth : 8 bits
Scan type : Progressive
Bits/(Pixel*Frame) : 0.116
Stream size : 1.57 GiB (85%)
Writing library : x264 core 148 r2643 5c65704
Encoding settings : cabac=1 / ref=8 / deblock=1:-2:-2 / analyse=0x1:0x111 / me=umh / subme=9 / psy=1 / psy_rd=1.00:0.25 / mixed_ref=1 / me_range=32 / chroma_me=1 / trellis=2 / 8x8dct=0 / cqm=0 / deadzone=21,11 / fast_pskip=1 / chroma_qp_offset=-4 / threads=12 / lookahead_threads=1 / sliced_threads=0 / nr=0 / decimate=1 / interlaced=0 / bluray_compat=0 / constrained_intra=0 / bframes=4 / b_pyramid=2 / b_adapt=2 / b_bias=0 / direct=3 / weightb=1 / open_gop=0 / weightp=2 / keyint=240 / keyint_min=24 / scenecut=40 / intra_refresh=0 / rc_lookahead=40 / rc=2pass / mbtree=1 / bitrate=2560 / ratetol=1.0 / qcomp=0.60 / qpmin=0 / qpmax=69 / qpstep=4 / cplxblur=20.0 / qblur=0.5 / vbv_maxrate=14000 / vbv_bufsize=14000 / nal_hrd=none / filler=0 / ip_ratio=1.40 / aq=1:1.00
Language : English
Default : Yes
Forced : No
Color range : Limited
Color primaries : BT.709
Transfer characteristics : BT.709
Matrix coefficients : BT.709

Audio
ID : 2
Format : AC-3
Format/Info : Audio Coding 3
Format settings, Endianness : Big
Codec ID : A_AC3
Duration : 1 h 28 min
Bit rate mode : Constant
Bit rate : 448 kb/s
Channel(s) : 6 channels
Channel positions : Front: L C R, Side: L R, LFE
Sampling rate : 48.0 kHz
Frame rate : 31.250 FPS (1536 spf)
Bit depth : 16 bits
Compression mode : Lossy
Delay relative to video : -5 ms
Stream size : 283 MiB (15%)
Title : Surround
Language : English
Service kind : Complete Main
Default : Yes
Forced : No

Text
ID : 3
Format : UTF-8
Codec ID : S_TEXT/UTF8
Codec ID/Info : UTF-8 Plain Text
Duration : 1 h 22 min
Bit rate : 66 b/s
Count of elements : 1637
Stream size : 40.4 KiB (0%)
Default : Yes
Forced : No

Menu
00:00:00.000 : :Chapter 1
00:09:59.682 : :Chapter 2
00:19:59.615 : :Chapter 3
00:29:59.589 : :Chapter 4
00:39:59.856 : :Chapter 5
00:49:59.038 : :Chapter 6
00:59:59.387 : :Chapter 7
01:09:59.904 : :Chapter 8
01:19:59.336 : :Chapter 9[/b]

[url=https://www.sparrowpics.com/image/kbJ5y][img]https://www.sparrowpics.com/images/2017/07/04/kbJ5y.png[/img][/url]

[URL=https://www.sparrowpics.com/image/wHrYy][IMG]https://www.sparrowpics.com/images/2017/09/21/wHrYy.th.jpg[/IMG][/URL]

[URL=https://www.sparrowpics.com/image/wHO4J][b]Click To View Screenshot[/b][/URL]

[URL=https://www.sparrowpics.com/image/wHbkc][b]Click To View Screenshot[/b][/URL]

[URL=https://www.sparrowpics.com/image/wH5W6][b]Click To View Screenshot[/b][/URL][/center] ]]>
InfernalRestraints.16.03.11.Violet.Monroe.Cheater.Cheater.Pussy.Eater.XXX.720p.MP4-KTR[N1C] http://glodls.to/torrent.php?id=2806127 http://glodls.to/torrent.php?id=2806127 Wed, 20 Sep 2017 22:05:22 +0100 Adult XXX InfernalRestraints.16.03.11.Violet.Monroe.Cheater.Cheater.Pussy.Eater.XXX.720p.MP4-KTR


[Format]: MPEG-4
[Duration]: 41mn 57s
[Resolution]: 1 280 x 720 pixels
[Display aspect ratio]: 16:9
[Frame rate mode]: Constant
[Frame rate]: 23.976 fps
[Original frame rate]: 25.000 fps


[color=green][b]#N1C -> To avoid fakes, ALWAYS check that the torrent was added by NO1CARES[/b][/color]




[color=green][b]Help us by donating with Bitcoin: 1Pgwp16gmLHmPzgjJLxZnMw7YeqiUekUoe[/b][/color]

[b]Screens...[/b]
[url]http://HotImage.uk/img-59c2e5db519bb.html[/url]
[url]http://HotImage.uk/img-59c2e5db5dad4.html[/url]
[url]http://HotImage.uk/img-59c2e5db66f48.html[/url]
[url]http://HotImage.uk/img-59c2e5db6eeee.html[/url] ]]>
InfernalRestraints.16.03.04.Devilynne.The.Calling.XXX.720p.MP4-KTR[N1C] http://glodls.to/torrent.php?id=2806120 http://glodls.to/torrent.php?id=2806120 Wed, 20 Sep 2017 22:02:46 +0100 Adult XXX InfernalRestraints.16.03.04.Devilynne.The.Calling.XXX.720p.MP4-KTR


[Format]: MPEG-4
[Duration]: 48mn 45s
[Resolution]: 1 280 x 720 pixels
[Display aspect ratio]: 16:9
[Frame rate mode]: Constant
[Frame rate]: 23.976 fps
[Original frame rate]: 25.000 fps


[color=green][b]#N1C -> To avoid fakes, ALWAYS check that the torrent was added by NO1CARES[/b][/color]




[color=green][b]Help us by donating with Bitcoin: 1Pgwp16gmLHmPzgjJLxZnMw7YeqiUekUoe[/b][/color]

[b]Screens...[/b]
[url]http://HotImage.uk/img-59c2e5161250e.html[/url]
[url]http://HotImage.uk/img-59c2e5161ea8f.html[/url]
[url]http://HotImage.uk/img-59c2e51627f66.html[/url]
[url]http://HotImage.uk/img-59c2e51630023.html[/url] ]]>
Porters.S01E01.720p.HDTV.x264-FaiLED http://glodls.to/torrent.php?id=2806119 http://glodls.to/torrent.php?id=2806119 Wed, 20 Sep 2017 22:02:04 +0100 TV
[url=https://www.sparrowpics.com/image/kbFon][img]https://www.sparrowpics.com/images/2017/07/04/kbFon.png[/img][/url]

[b]Complete name : porters.s01e01.720p.hdtv.x264-failed.mkv
Format : Matroska
Format version : Version 4 / Version 2
File size : 615 MiB
Duration : 28 min 9 s
Overall bit rate : 3 052 kb/s
Encoded date : UTC 2017-09-20 21:48:45
Writing application : mkvmerge v8.5.2 ('Crosses') 64bit
Writing library : libebml v1.3.3 + libmatroska v1.4.4

Video
ID : 1
Format : AVC
Format/Info : Advanced Video Codec
Format profile : High@L4.1
Format settings, CABAC : Yes
Format settings, ReFrames : 5 frames
Codec ID : V_MPEG4/ISO/AVC
Duration : 28 min 9 s
Bit rate : 2 666 kb/s
Width : 1 280 pixels
Height : 720 pixels
Display aspect ratio : 16:9
Frame rate mode : Constant
Frame rate : 25.000 FPS
Color space : YUV
Chroma subsampling : 4:2:0
Bit depth : 8 bits
Scan type : Progressive
Bits/(Pixel*Frame) : 0.116
Stream size : 537 MiB (87%)
Writing library : x264 core 152 r2851 ba24899
Encoding settings : cabac=1 / ref=5 / deblock=1:0:0 / analyse=0x3:0x113 / me=hex / subme=8 / psy=1 / psy_rd=1.00:0.00 / mixed_ref=1 / me_range=16 / chroma_me=1 / trellis=2 / 8x8dct=1 / cqm=0 / deadzone=21,11 / fast_pskip=1 / chroma_qp_offset=-2 / threads=18 / lookahead_threads=3 / sliced_threads=0 / nr=0 / decimate=1 / interlaced=0 / bluray_compat=0 / constrained_intra=0 / bframes=3 / b_pyramid=2 / b_adapt=1 / b_bias=0 / direct=3 / weightb=1 / open_gop=0 / weightp=2 / keyint=250 / keyint_min=25 / scenecut=40 / intra_refresh=0 / rc_lookahead=50 / rc=crf / mbtree=1 / crf=17.0 / qcomp=0.60 / qpmin=0 / qpmax=69 / qpstep=4 / ip_ratio=1.40 / aq=1:1.00
Default : Yes
Forced : No
Color range : Limited
Color primaries : BT.709
Transfer characteristics : BT.709
Matrix coefficients : BT.709

Audio
ID : 2
Format : AC-3
Format/Info : Audio Coding 3
Format settings, Endianness : Big
Codec ID : A_AC3
Duration : 28 min 9 s
Bit rate mode : Constant
Bit rate : 384 kb/s
Channel(s) : 6 channels
Channel positions : Front: L C R, Side: L R, LFE
Sampling rate : 48.0 kHz
Frame rate : 31.250 FPS (1536 spf)
Bit depth : 16 bits
Compression mode : Lossy
Delay relative to video : 11 ms
Stream size : 77.3 MiB (13%)
Language : English
Service kind : Complete Main
Default : Yes
Forced : No[/b]

[url=https://www.sparrowpics.com/image/kbJ5y][img]https://www.sparrowpics.com/images/2017/07/04/kbJ5y.png[/img][/url]

[URL=https://tv.sparrowpics.com/image/gHW8c][IMG]https://tv.sparrowpics.com/images/2017/09/20/gHW8c.th.jpg[/IMG][/URL]

[URL=https://tv.sparrowpics.com/image/gHXSQ][b]Click To View Screenshot[/b][/URL]

[URL=https://tv.sparrowpics.com/image/gHzPi][b]Click To View Screenshot[/b][/URL]

[URL=https://tv.sparrowpics.com/image/gH5em][b]Click To View Screenshot[/b][/URL][/center] ]]>
InfernalRestraints.16.02.26.Abigail.Dupree.Lobster.Girl.XXX.720p.MP4-KTR http://glodls.to/torrent.php?id=2806116 http://glodls.to/torrent.php?id=2806116 Wed, 20 Sep 2017 22:01:59 +0100 Adult XXX
{Duration} : 1 h 3 min
{Format} : MPEG-4
{Resolution} : 1280 x 720 pixels
{Aspect Ratio} : 16:9
{Frame Rate} : 23.976 fps

[b]Thumbnails : -[/b]


[URL=https://www.sizzlingclicks.com/image/hFp8n][IMG]https://www.sizzlingclicks.com/images/2017/09/20/hFp8n.th.jpg[/IMG][/URL]
[b][URL]https://www.sizzlingclicks.com/image/hFp8n[/URL][/b]
[b][URL]https://www.sizzlingclicks.com/image/hFuZw[/URL][/b]
[b][URL]https://www.sizzlingclicks.com/image/hFOtM[/URL][/b]
[b][URL]https://www.sizzlingclicks.com/image/hFZ2q[/URL][/b] ]]>
InfernalRestraints.16.02.26.Abigail.Dupree.Lobster.Girl.XXX.720p.MP4-KTR[N1C] http://glodls.to/torrent.php?id=2806115 http://glodls.to/torrent.php?id=2806115 Wed, 20 Sep 2017 22:01:35 +0100 Adult XXX InfernalRestraints.16.02.26.Abigail.Dupree.Lobster.Girl.XXX.720p.MP4-KTR


[Format]: MPEG-4
[Duration]: 1h 3mn
[Resolution]: 1 280 x 720 pixels
[Display aspect ratio]: 16:9
[Frame rate mode]: Constant
[Frame rate]: 23.976 fps
[Original frame rate]: 25.000 fps


[color=green][b]#N1C -> To avoid fakes, ALWAYS check that the torrent was added by NO1CARES[/b][/color]




[color=green][b]Help us by donating with Bitcoin: 1Pgwp16gmLHmPzgjJLxZnMw7YeqiUekUoe[/b][/color]

[b]Screens...[/b]
[url]http://HotImage.uk/img-59c2e4f101ff8.html[/url]
[url]http://HotImage.uk/img-59c2e4f10de2d.html[/url]
[url]http://HotImage.uk/img-59c2e4f11755f.html[/url]
[url]http://HotImage.uk/img-59c2e4f11f3bf.html[/url] ]]>