GloDLS.to - Download Movies, TV, Games and Other Torrents Free RSS 2.0enGloDLS.to - Download Movies, TV, Games and Other Torrents FreeGloDLS.to - Download Movies, TV, Games and Other Torrents Free RSS Feedhttp://glodls.toCopyright GloDLS.to - Download Movies, TV, Games and Other Torrents FreeThu, 25 May 2017 00:26:00 +0100 MP3 NEW RELEASES 2017 WEEK 20 - [ GloDLS] http://glodls.to/torrent.php?id=2529814 http://glodls.to/torrent.php?id=2529814 Wed, 24 May 2017 23:21:38 +0100 TV
[img]https://lookpic.com/O/i2/154/vQ8Rs5m7.jpeg[/img]

[img]http://i.imgur.com/eXL4qEu.png[/img]

[b]
MP3 New Releases Week 20

100 Hits 70s Chartbusters - Various

Acoustic Hits - Various

Bee Gees - Timeless - The All-Time Greatest Hits

Blondie - Pollinator

Caro Emerald - Acoustic Sessions Parts 1 & 2

Kasabian - For Crying Out Loud (2017)

M.O.S. Recover 2017 - Various

New Found Glory - Makes Me Sick

Nick Cave & The Bad Seeds - Lovely Creatures - The Best Of (1984-2014)

No1's The Collection - Various

Peaceful Piano - Various

Robert Miles - Dreamland

UK Top 40 Singles 12-05-2017


All covers included, enjoy this release!

[/b]

[url=http://facebook.com/glotorrents][img]http://i.imgur.com/kxEDTfW.png[/img][/url]

[url=http://fbgroup.glodls.to/][img]http://i.imgur.com/uCXRnCl.jpg[/img][/url]

[/center]
]]>
Bonded.By.Blood.2.2017.BRRip.XviD.AC3-EVO http://glodls.to/torrent.php?id=2529813 http://glodls.to/torrent.php?id=2529813 Wed, 24 May 2017 23:13:37 +0100 Movies [color=red][b]
Bonded.By.Blood.2.2017.BRRip.XviD.AC3-EVO

[/b][/color]


IMDb: http://www.imdb.com/title/tt4334642/





[url=https://boltimg.com/image/t52z][img]https://boltimg.com/images/t52z.png[/img][/url]



[color=green][b]
General

(Duration): 1h 32mn
(FileSize): 1.15 GiB



Audio

(Format): AC-3 - Audio Coding 3
(Codec): AC3



Video

(Format): MPEG-4 Visual -
(Media): video/MP4V-ES
(Format): XviD
(Resolution): 720x302 px
(AspectRatio): 2.40:1
(FrameRate): 23.976 fps




[/b][/color]


[url=https://boltimg.com/image/tzTE][img]https://boltimg.com/images/tzTE.png[/img][/url]



[color=purple][b](Click to enlarge)[/b][/color]

[url=https://boltimg.com/image/MKlk7][img]https://boltimg.com/images/MKlk7.th.jpg[/img][/url] [url=https://boltimg.com/image/MKXYf][img]https://boltimg.com/images/MKXYf.th.jpg[/img][/url] [url=https://boltimg.com/image/MKtyO][img]https://boltimg.com/images/MKtyO.th.jpg[/img][/url] [url=https://boltimg.com/image/MKzzS][img]https://boltimg.com/images/MKzzS.th.jpg[/img][/url] [url=https://boltimg.com/image/MK5rE][img]https://boltimg.com/images/MK5rE.th.jpg[/img][/url] [url=https://boltimg.com/image/MKDgz][img]https://boltimg.com/images/MKDgz.th.jpg[/img][/url]

[/center]
]]>
Bonded.By.Blood.2.2017.720p.BluRay.x264-SPOOKS[PRiME] http://glodls.to/torrent.php?id=2529783 http://glodls.to/torrent.php?id=2529783 Wed, 24 May 2017 22:56:18 +0100 Movies Bonded.By.Blood.2.2017.720p.BluRay.x264-SPOOKS[PRiME]

ImDb: [URL]http://www.imdb.com/title/tt4334642[/URL]

[url=https://www.sparrowpics.com/image/LwB][img]https://www.sparrowpics.com/images/2015/12/10/Info.png[/img][/url]

[color=green]Complete name : bonded.by.blood.2.2017.720p.bluray.x264-spooks[PRiME].mkv
Format : Matroska
Format version : Version 4 / Version 2
File size : 4.37 GiB
Duration : 1 h 32 min
Overall bit rate : 6 787 kb/s
Encoded date : UTC 2017-05-24 21:58:35
Writing application : mkvmerge v12.0.0 ('Trust / Lust') 64bit
Writing library : libebml v1.3.4 + libmatroska v1.4.5

Video
ID : 1
Format : AVC
Format/Info : Advanced Video Codec
Format profile : High@L4.1
Format settings, CABAC : Yes
Format settings, ReFrames : 5 frames
Codec ID : V_MPEG4/ISO/AVC
Duration : 1 h 32 min
Bit rate : 6 025 kb/s
Width : 1 280 pixels
Height : 536 pixels
Display aspect ratio : 2.40:1
Frame rate mode : Constant
Frame rate : 23.976 (24000/1001) FPS
Color space : YUV
Chroma subsampling : 4:2:0
Bit depth : 8 bits
Scan type : Progressive
Bits/(Pixel*Frame) : 0.366
Stream size : 3.78 GiB (87%)
Writing library : x264 core 150 r2829 d1fe6fd
Encoding settings : cabac=1 / ref=5 / deblock=1:-3:-3 / analyse=0x3:0x133 / me=umh / subme=8 / psy=1 / psy_rd=1.00:0.00 / mixed_ref=1 / me_range=16 / chroma_me=1 / trellis=1 / 8x8dct=1 / cqm=0 / deadzone=21,11 / fast_pskip=0 / chroma_qp_offset=-2 / threads=6 / lookahead_threads=1 / sliced_threads=0 / nr=0 / decimate=1 / interlaced=0 / bluray_compat=0 / constrained_intra=0 / bframes=3 / b_pyramid=2 / b_adapt=1 / b_bias=0 / direct=3 / weightb=1 / open_gop=0 / weightp=2 / keyint=250 / keyint_min=23 / scenecut=40 / intra_refresh=0 / rc_lookahead=50 / rc=2pass / mbtree=1 / bitrate=6025 / ratetol=1.0 / qcomp=0.60 / qpmin=0 / qpmax=69 / qpstep=4 / cplxblur=20.0 / qblur=0.5 / vbv_maxrate=62500 / vbv_bufsize=78125 / nal_hrd=none / filler=0 / ip_ratio=1.40 / aq=1:1.00
Default : Yes
Forced : No

Audio
ID : 2
Format : DTS
Format/Info : Digital Theater Systems
Mode : 16
Format settings, Endianness : Big
Codec ID : A_DTS
Duration : 1 h 32 min
Bit rate mode : Constant
Bit rate : 768 kb/s
Channel(s) : 6 channels
Channel positions : Front: L C R, Side: L R, LFE
Sampling rate : 48.0 kHz
Frame rate : 93.750 FPS (512 spf)
Bit depth : 24 bits
Compression mode : Lossy
Stream size : 506 MiB (11%)
Language : English
Default : Yes
Forced : No

Menu
00:00:00.000 : en:00:00:00.000
00:08:11.533 : en:00:08:11.533
00:13:45.950 : en:00:13:45.950
00:22:37.314 : en:00:22:37.314
00:29:14.461 : en:00:29:14.461
00:36:33.024 : en:00:36:33.024
00:43:14.509 : en:00:43:14.509
00:51:08.440 : en:00:51:08.440
00:57:41.041 : en:00:57:41.041
01:06:11.092 : en:01:06:11.092
01:13:47.423 : en:01:13:47.423
01:20:05.718 : en:01:20:05.718[/color]

[url=https://www.sparrowpics.com/image/UYe][img]https://www.sparrowpics.com/images/2015/12/10/Screens.png[/img][/url]

[color=red]Click Image To View Full Size[/color]

[URL=https://www.sparrowpics.com/image/7mJm6][IMG]https://www.sparrowpics.com/images/2017/05/25/7mJm6.th.jpg[/IMG][/URL]
[URL=https://www.sparrowpics.com/image/7mMWh][b]Click To View Screenshot[/b][/URL]
[URL=https://www.sparrowpics.com/image/7mUzt][b]Click To View Screenshot[/b][/URL]
[URL=https://www.sparrowpics.com/image/7mWVZ][b]Click To View Screenshot[/b][/URL]

[/center] ]]>
Bonded.By.Blood.2.2017.BDRip.x264-SPOOKS http://glodls.to/torrent.php?id=2529782 http://glodls.to/torrent.php?id=2529782 Wed, 24 May 2017 22:46:12 +0100 Movies [color=red][b]
Bonded.By.Blood.2.2017.BDRip.x264-SPOOKS

[/b][/color]


IMDb: http://www.imdb.com/title/tt4334642/





[url=https://boltimg.com/image/t52z][img]https://boltimg.com/images/t52z.png[/img][/url]



[color=green][b]
General

(Duration): 1h 32mn
(FileSize): 352 MiB



Audio

(Format): AAC - Advanced Audio Codec
(Codec): AAC LC



Video

(Format): AVC - Advanced Video Codec
(Media): video/H264
(Format): x264
(Resolution): 720x302 px
(AspectRatio): 2.40:1
(FrameRate): 23.976 fps




[/b][/color]


[url=https://boltimg.com/image/tzTE][img]https://boltimg.com/images/tzTE.png[/img][/url]



[color=purple][b](Click to enlarge)[/b][/color]

[url=https://boltimg.com/image/MKsZp][img]https://boltimg.com/images/MKsZp.th.jpg[/img][/url] [url=https://boltimg.com/image/MKFgC][img]https://boltimg.com/images/MKFgC.th.jpg[/img][/url] [url=https://boltimg.com/image/MKViG][img]https://boltimg.com/images/MKViG.th.jpg[/img][/url] [url=https://boltimg.com/image/MKcGF][img]https://boltimg.com/images/MKcGF.th.jpg[/img][/url] [url=https://boltimg.com/image/MKpob][img]https://boltimg.com/images/MKpob.th.jpg[/img][/url] [url=https://boltimg.com/image/MKJRN][img]https://boltimg.com/images/MKJRN.th.jpg[/img][/url]

[/center]
]]>
Bonded.By.Blood.2.2017.BDRip.x264-SPOOKS[PRiME] http://glodls.to/torrent.php?id=2529781 http://glodls.to/torrent.php?id=2529781 Wed, 24 May 2017 22:45:57 +0100 Movies Bonded.By.Blood.2.2017.BDRip.x264-SPOOKS[PRiME]

ImDb: [URL]http://www.imdb.com/title/tt4334642[/URL]

[url=https://www.sparrowpics.com/image/LwB][img]https://www.sparrowpics.com/images/2015/12/10/Info.png[/img][/url]

[color=green]Complete name : bonded.by.blood.2.2017.bdrip.x264-spooks[PRiME].mkv
Format : Matroska
Format version : Version 4 / Version 2
File size : 352 MiB
Duration : 1 h 32 min
Overall bit rate : 535 kb/s
Encoded date : UTC 2017-05-24 18:28:18
Writing application : mkvmerge v12.0.0 ('Trust / Lust') 64bit
Writing library : libebml v1.3.4 + libmatroska v1.4.5

Video
ID : 1
Format : AVC
Format/Info : Advanced Video Codec
Format profile : High@L3.1
Format settings, CABAC : Yes
Format settings, ReFrames : 5 frames
Codec ID : V_MPEG4/ISO/AVC
Duration : 1 h 32 min
Width : 720 pixels
Height : 302 pixels
Display aspect ratio : 2.40:1
Frame rate mode : Constant
Frame rate : 23.976 (24000/1001) FPS
Color space : YUV
Chroma subsampling : 4:2:0
Bit depth : 8 bits
Scan type : Progressive
Writing library : x264 core 150 r2829 d1fe6fd
Encoding settings : cabac=1 / ref=5 / deblock=1:-3:-3 / analyse=0x3:0x113 / me=hex / subme=8 / psy=1 / psy_rd=1.00:0.15 / mixed_ref=1 / me_range=16 / chroma_me=1 / trellis=2 / 8x8dct=1 / cqm=0 / deadzone=21,11 / fast_pskip=1 / chroma_qp_offset=-3 / threads=6 / lookahead_threads=1 / sliced_threads=0 / nr=0 / decimate=1 / interlaced=0 / bluray_compat=0 / constrained_intra=0 / bframes=3 / b_pyramid=2 / b_adapt=1 / b_bias=0 / direct=3 / weightb=1 / open_gop=0 / weightp=2 / keyint=250 / keyint_min=23 / scenecut=40 / intra_refresh=0 / rc_lookahead=50 / rc=crf / mbtree=1 / crf=19.0 / qcomp=0.60 / qpmin=0 / qpmax=69 / qpstep=4 / vbv_maxrate=17500 / vbv_bufsize=17500 / crf_max=0.0 / nal_hrd=none / filler=0 / ip_ratio=1.40 / aq=1:0.60
Default : Yes
Forced : No
Color range : Limited
Matrix coefficients : BT.709

Audio
ID : 2
Format : AAC
Format/Info : Advanced Audio Codec
Format profile : LC
Codec ID : A_AAC
Duration : 1 h 32 min
Channel(s) : 2 channels
Channel positions : Front: L R
Sampling rate : 48.0 kHz
Frame rate : 46.875 FPS (1024 spf)
Compression mode : Lossy
Delay relative to video : 20 ms
Language : English
Default : Yes
Forced : No

Menu
00:00:00.000 : en:00:00:00.000
00:08:11.533 : en:00:08:11.533
00:13:45.950 : en:00:13:45.950
00:22:37.314 : en:00:22:37.314
00:29:14.461 : en:00:29:14.461
00:36:33.024 : en:00:36:33.024
00:43:14.509 : en:00:43:14.509
00:51:08.440 : en:00:51:08.440
00:57:41.041 : en:00:57:41.041
01:06:11.092 : en:01:06:11.092
01:13:47.423 : en:01:13:47.423
01:20:05.718 : en:01:20:05.718[/color]

[url=https://www.sparrowpics.com/image/UYe][img]https://www.sparrowpics.com/images/2015/12/10/Screens.png[/img][/url]

[color=red]Click Image To View Full Size[/color]

[URL=https://www.sparrowpics.com/image/7kCln][IMG]https://www.sparrowpics.com/images/2017/05/25/7kCln.th.jpg[/IMG][/URL]
[URL=https://www.sparrowpics.com/image/7khxy][b]Click To View Screenshot[/b][/URL]
[URL=https://www.sparrowpics.com/image/7m1oJ][b]Click To View Screenshot[/b][/URL]
[URL=https://www.sparrowpics.com/image/7mF4c][b]Click To View Screenshot[/b][/URL]

[/center] ]]>
FuckingMachines 17 05 24 Mona Wales XXX XviD SD http://glodls.to/torrent.php?id=2529780 http://glodls.to/torrent.php?id=2529780 Wed, 24 May 2017 22:25:18 +0100 Adult XXX
[b]Screenshots:[/b]

[url]http://imgking.co/imgs-59260850289f8.html[/url]

[url]http://imgking.co/imgs-5926085024294.html[/url]

[url]http://imgking.co/imgs-592608501f2ad.html[/url]

[url]http://imgking.co/imgs-5926084dd55b7.html[/url] ]]>
Muv-Luv iSO-DARKSiDERS http://glodls.to/torrent.php?id=2529779 http://glodls.to/torrent.php?id=2529779 Wed, 24 May 2017 22:14:11 +0100 Games [center][img]https://s4.postimg.org/i0eq3t88t/header.jpg[/img][/center]






? ?

? ?
? ?
?? ??
???????? ?????? ?????? ??????
?????????????????? ???? ??? ????????? ????????? ?????????? ?????????????????????
?????????????????? ???? ???? ???? ???? ???? ???? ????????? ?????????????????????
?????????????????? ???? ? ? ? ??? ?? ? ????? ? ? ??? ?????????????????????
? ? ???? ???? ???? ???? ? ?? ?????? ??
?????????????? ??? ???? ???? ???? ???? ???? ???? ???? ???? ???? ???????????????
???????????? ??? ?????? ???? ???? ???? ???? ???? ???? ???????? ??? ?????????????
???????????? ? ???? ???? ???? ???? ???? ???? ???? ?????? ? ?????????????
???????????? ?? ??? ??? ?????????????????????????????? ? ?????????????
????????????? ?? ???? ? ??? ???? ???? ??? ??? ?? ?????????????
?????????????? ?????? ???? ?????? ?????? ????? ??????? ??????????????
?????????????? CrAcKHeAd`KiNG.19 ??????????????
????????????? ?????? ??????? ???????????????? ?????? ?????????????
??????????? ????? ?? ?? ? ????? ? ?????? ??? ?????? ? ??????? ?????????????
??????????? ?? ? ???? ???? ???? ???? ???? ???? ?????? ?? ???? ???? ?????????????
??????????? ????????? ???? ???? ?? ? ????? ????????? ????????? ?????????????
??????????? ???? ? ?? ? ?? ???? ???? ???? ????????? ???? ???? ? ?? ?????????????
?????????? ?? ? ???? ???? ???? ???? ???? ???? ???? ???? ? ?? ???? ????????????
????????????????????????????????????????????? ??????????
???????????????? ???? ????????? ? ? ???? ???? ???? ? ?? ???? ??????????????????
???????????????? ???? ????????? ???? ???? ???? ???? ???? ???? ??????????????????
???????????????? ???? ????????? ???? ???? ???? ???? ???? ???? ??????????????????
? ???? ???????? ???????? ??????????? ?
? ???? ?????? ?????? ?????? ??? ?
? ???????? ???????? ?
? ?????? . D A R K S i D E R S . 2 0 1 7 .?????? ?
? ! P R O U D L Y . P . R . E . S E N T S ! ?
? ?????? ?????? ?????? ?????? ?????? ?????? ?
? ???? ???? ???? ???????? ???? ????? ???? ??????????? ?
? ???????????????????????????? ??????????????????? ???????????????????? ?
? ???? ??????? ??? ??? ??????? ????????????? ???? ????? ???? ???? ???? ?
? ???????????????????? ??????????? ???? ???? ?????????? ???? ????????? ?
???? ???? ?? ???? ???? ?????????? ??? ???? ???? ????? ???? ???? ???? ???? ?????
???? ???????????? ??????????????????????????? ???? ??????????????
???? ???? ?? ???? ?? ???? ??????? ???????? ???? ????? ???? ???? ???? ???? ?????
???? ???? ?? ???? ?? ???????????? ?????? ???? ??? ???? ???? ???? ???? ?????
???? ???? ?? ???? ?? ???? ?? ???? ?????? ???????? ??? ???? ???? ???? ???? ?????
???? ???? ?? ???? ?? ???? ?? ???? ???????? ???? ????? ???? ???? ???? ???? ?????
???? ???? ???? ???????? ???????????? ????
???? ???? ?? ???? ???????? ?????? ?????? ???? ???? ???? ?????
???? ???? ?????? D A R K S i D E R S ???? ????
???? ???? ???????? ???????? ?? ???? ?????
???? ???? ?? ???? O T A K U . S E C T i O N . P R O U D L Y ???? ?? ???? ?????
? ???? ???? ?
? ???????? ! P . R . E . S E N T S ! ???????? ?
? ???? ???? ?
? Muv-Luv.iSO-DARKSiDERS ?
? ?
? Product:......................................................: Muv-Luv ?
? Developer:.......................................................: ixtl ?
? Publisher:.....................................................: Degica ?
? Genre:..........................: Visual Novel, Sci-Fi, Nudity, Romance ?
? Protection:.....................................................: STEAM ?
? Number of Players:.......................................: Singleplayer ?
? Release Date:..............................................: 24.05.2017 ?
? Original Date:.............................................: 15.07.2016 ?
? Packet Count:..................................................: 1 DiSC ?
? Supplier:................................................: dadwithwings ?
? Packer...................................................: dadwithwings ?
? Cracker.......................................................: DSiDERS ?
? ?
? http://store.steampowered.com/app/449830/ ?
? * NOT ENOUGH NUDiTY TO BE REAL HENTAi * ?
? ???? ???? ?
? ???????? ???????? ?
? ???? ???? ?????? ???? ?
????????????????? ???? ???????? ????????? ???????? ???? ??????????????????????
???? ???? ?????? ?????? ???? ??????????
????????????????? ???? ?? ???? ???? ? ???? ???? ?? ???? ???? ?????????????????
???? ???? ????? ?????????? ???? ????
????????????????? ???? ?? ???? ????? ? ?????????? ?? ???? ???? ?????????????????
????????????????? ???? ?? ?????????? ? ???? ?????? ? ???? ???? ?????????????????
????????????????? ?? ?? ?????????? ? ???? ?????? ???? ????
???? ????? ???? ?????? ???? ???? ?????????????????
???????????????? ?????? ? ????? ???? ? ???? ??????? ???? ?? ???????????????????
???????????????????????? ???? ?????? ???? ???????? ????? ?????????????????????
???????????????????????? ?????? ????? ?????? ?????? ????? ??????????????????????

????????????????????????????????????????????????????????????????????????????????
? ?
? The most highly-acclaimed visual novel series of all ?
? time arrives on Steam! An interdimensional love ?
? story that takes high school romance on a roller- ?
? coaster ride through the depths of despair, ?
? culminating in a sci-fi grand finale of epic ?
? proportions. ?
? ?
? ?????? ?
? ???? ? ? ???? ?
? ???????? ???? ???????? ?
?????????????????????? ???? ? ?????????????? ? ????????? ?????? ??????????????
?????? ???? ???? ???? ? ? ? ??????
???????? ???? ?????? ? ?????????? ???? ???? ???? ? ???? ???? ? ? ??????????
????????? ? ? ? ? ? ???? ? ? ? ???? ???? ???? ? ???? ???? ???? ??????????
????????? ???? ???? ?? ???? ???? ? ???? ???? ???? ? ???? ???? ???? ??????????
????????? ???? ???? ?? ???? ???? ? ???? ???? ???? ? ???? ???? ???? ??????????
???? ???? ???? ???? ???? ????? ???? ???? ????
????????? ???? ???? ?? ???? ???? ? ???? ????? ????? ?????? ????????? ??????????
???? ???? ???? ???? ???? ???? ? ?
????????? ???? ???? ?? ???? ???? ? ???? ????? ????? ?????? ???? ???? ??????????
???? ???? ???? ???? ???? ????? ? ? ? ? ????
????????? ???? ???? ?? ???? ? ?? ? ???? ???? ???? ? ???? ???? ???? ??????????
????????? ???? ????? ?? ???? ??? ? ???? ???? ???? ?? ???? ???? ???? ??????????
????????? ?????????? ?? ???? ?? ??? ???? ???? ???? ?? ???? ???? ???? ??????????
????????? ??????? ? ?? ?????? ???? ???? ???? ???? ?? ???? ???? ???? ??????????
???? ?????? ? ?? ???? ?? ? ???? ???? ????
????????? ???? ?????? ???????? ???? ???? ??? ????????????? ?????????? ??????????
??????? ??? ??? ???????????????? ??? ??? ??????????????????? ???????? ????????
???????? ?????? ?????????????????? ?????? ????????????????????? ?????? ?????????
? ?
? 1. Unpack, Mount or Burn! ?
? ?
? 2. Install! Copy crack from disc, or use our installer :) ?
? ?
? 3. WATCH THE COOL AMiGA STyLE CRACKTRO!! ?
? ?
? 4. Play! AND Also, BUy ThiS GeM iF LikE eNoUGH! DEVs DeSeRVe SuPPORt!!! ?
? ?
? ?????? ?????? ?????? ?????? ?????? ????? ?
? ? ? ? ? ? ? ? ? ? ? ? ? ?
?????????? ???? ???? ???? ???? ???? ????? ???? ???? ???? ? ???? ???????????????
?????????? ?????????????????? ?????????? ?????????? ???? ?????????? ?????????
???? ???? ???? ? ?? ???? ? ? ???? ? ? ???? ???? ? ?
?????????? ???? ???? ???? ???? ???? ???? ???? ???? ???? ? ???? ???? ??????????
?????????? ???? ? ? ???????? ???? ???? ???? ???? ???? ? ???? ???? ??????????
?????????? ???? ???? ???? ???? ??? ???? ???? ???? ???? ? ???? ???? ??????????
?????????? ???? ???? ???? ??????? ? ??? ???????? ????????? ??????????
?? ?????? ???? ???? ???? ? ? ??? ???? ???? ????? ????
?????????? ???? ? ? ???? ???? ???? ???? ???? ? ? ???? ???? ???? ??????????
?????????? ???? ???? ???? ???? ???? ???? ???? ???? ???? ? ???? ???? ??????????
?????????? ???? ???? ???? ???? ???? ???? ???? ???? ???? ? ???? ???? ??????????
?????????? ????????? ???? ???? ???? ???? ???? ???? ???? ???? ????
?????????? ???? ???? ???? ? ? ? ? ???? ???? ???? ???? ? ???? ? ? ??????????
?????????? ???? ???? ???????????? ??????? ?????????? ???? ?????????? ??????????
???????? ??? ??? ??? ???? ???? ??? ??? ??? ??? ??? ???????? ????????
????????? ?????? ?? ?????? ?????? ?????? ?????? ?????? ?????????
? ?
? WE GREET OUR FRiENDS iN: ?
? ----------------------- ?
? ** VACE - BEAN - CRD - MegaSoft ** ?
? ** wAx - JAVSiDERS - z0ne - TiTANDEMO ** ?
? ** ALSO THOSE WE DONT MENTiON KNOW WE STiLL RESPECT ! ;) ** ?
? ?
? Personal greets: !a9 - aSi - CXA - sex0rZ - My weed dealer ?
? ?
? Also greetings to all the ART & OLDSKOOL GROUPS out there! ?
? And those for remember this is just for fun and friendly competition... ?
? All groups who release JAPANESE stuff!! ?
? ?
? ?????? ?????? ?
? ? ? ? ? ?
? ???? ???? ?
???????????? ???? ??????????????????????????????????????? ???? ?????????????????
???????????? ?????????? ????????????????????????????????? ?????????? ???????????
???????????? ???? ? ? ???????????????????????????????? ???? ???? ????????????
???????????? ???? ???? ?????? ?????????????? ?????? ????? ???? ???? ????????????
???????????? ???? ???? ? ? ?????????????? ? ? ????? ???? ? ? ????????????
???????????? ???? ???? ???? ???????????????? ???? ?????? ???? ???? ????????????
???????????? ???? ???? ???? ???????????????? ???? ?????? ???????? ????????????
???????????? ?????????? ???????? ?????? ???? ???? ????? ???? ?????????????????
???????????? ?? ? ? ? ???? ???? ? ? ????? ???? ? ? ???? ?????????????????
???????????? ???? ???? ???????? ???? ????? ???? ???? ? ???? ?????????????????
???????????? ???? ???? ???? ???? ???? ????? ???? ???? ? ???? ?????????????????
???????????? ????????? ???? ? ? ????????? ???? ???? ? ???? ?????????????????
???????????? ???? ???? ???? ???? ???? ? ? ???? ???? ???? ?????????????????
?????????? ??? ??? ??? ???? ???? ???? ???? ???? ???? ??? ??? ???????????????
??????????? ?????? ??? ???? ???? ???? ???? ???? ???? ?????? ????????????????
??????????????????????? ???? ???? ???? ???? ???? ? ? ???????????????????????
??????????????????????? ???? ???? ???? ???? ?????????? ???????????????????????
??????????????????????? ???? ???? ???? ???? ???? ?????????????????????????????
??????????????????????? ?????????? ???? ???? ???? ?????????????????????????????
????????????????????? ??? ??? ??? ???? ?? ??? ??? ???????????????????????????
????????????????????? ?????? ???? ????? ??? ?????? ???????????????????????????
??????????????????????? ???? ?????????????????????????????
?????????????????????????????????? ???? ????????????????????????????????????????
? ??? ??? ?
? ?????? ?
? ?
? THESE RELEASES ARENT MEANT FO YOU TORRENT GUYS, THiS iS FROM SCENE TO ?
? SCENE THiNG!! SO BiG FUCK YOU TO ALL P2P LEAKERS AND ALL WHO MAKE $$$ ?
? WiTH WAREZ!! ?
? ?
? ALSO DONT FORGET TO BUY THA GAME iF U LiKE iT, DEVS DESERVE SUPPORT!! ?
? ---------------------------------------------------------------------------- ?
? ALSO WE STiLL HAVE ROOM FOR COUPLE MEMBERS, THOU BE QUiCK ;) ?
? ---------------------------------------------------------------------------- ?
? ?
? * We are lookin for coders/crackers and Asian and Nordic Sites! * ?
? * Other Respectaple sites also * ?
? * Also supplier who have access to JAPANESE retail, ANY SECTiON! * ?
? * Ebook and Games supplys wanted!! dont hesitate! * ?
? ?
? ?????? ?????? ?
? ? ? CONTACT US: !! NEW E-MAiL !! DARKSTARS@PROTONMAiL.COM !! ? ? ?
? ???? ???? ?
????? ???? ??????????????????????????????????????????????????????????? ???? ????
????? ???? ??????????????????????????????????????????????????????????? ???? ????
????? ???? ??????????????????????????????????????????????????????????? ???? ????
???? ????
???? THiS iS "OTAKU" SECTiON OF DARKSiDERS, WE PRE "OTAKU" STUFF ????
???????? AKA ALL THiNGS EVEN REMOTELY JAPANESE ????????
?????? ??????
?? ??

]]>
The Assignment (2016) 720p BluRay x264 AAC ESubs - Downloadhub http://glodls.to/torrent.php?id=2529778 http://glodls.to/torrent.php?id=2529778 Wed, 24 May 2017 22:12:46 +0100 Movies
[img]https://extraimage.net/images/2017/05/10/0f98922bd359e7eaf5f6ad12fc86c758.png[/img]

[b][code]MOVIE INFO:
http://www.imdb.com/title/tt5034474/
[FORMAT]:…………………….[ Matroska
[CODEC]:………………[ x264
[GENRE]:……………………[ Action, Crime, Thriller
[FILE SIZE]:……………………[ 765MB
[RESOLUTION]:……………….[ 1280x536
[LANGUAGE]:…………………[ English
[SUBTITLES]:………………..[ English
[ENCODER]:…………..[ Downloadhub
[SOURCE]:…………………..[ ROVERS Thanks[/code]

[Medai Info]: [url]https://linkshub.club/index.php?ID=130179375379000-paste[/url]

Sample Including In Torrent[/b]

[url=https://www.jiopic.com/image/XzAkj][img]https://www.jiopic.com/images/2017/05/25/vlcsnap-2017-05-24-17h03m10s970.th.png[/img][/url] [url=https://www.jiopic.com/image/Xzz6D][img]https://www.jiopic.com/images/2017/05/25/vlcsnap-2017-05-24-17h03m21s812.th.png[/img][/url] [url=https://www.jiopic.com/image/XzZJv][img]https://www.jiopic.com/images/2017/05/25/vlcsnap-2017-05-24-17h04m34s561.th.png[/img][/url] [url=https://www.jiopic.com/image/Xz1Ft][img]https://www.jiopic.com/images/2017/05/25/vlcsnap-2017-05-24-17h05m08s069.th.png[/img][/url] [url=https://www.jiopic.com/image/XzL5z][img]https://www.jiopic.com/images/2017/05/25/vlcsnap-2017-05-24-17h05m17s329.th.png[/img][/url] [url=https://www.jiopic.com/image/XzgKf][img]https://www.jiopic.com/images/2017/05/25/vlcsnap-2017-05-24-17h05m23s098.th.png[/img][/url] [url=https://www.jiopic.com/image/XzBx1][img]https://www.jiopic.com/images/2017/05/25/vlcsnap-2017-05-24-17h05m54s154.th.png[/img][/url] [url=https://www.jiopic.com/image/XzinQ][img]https://www.jiopic.com/images/2017/05/25/vlcsnap-2017-05-24-17h06m08s118.th.png[/img][/url] [url=https://www.jiopic.com/image/XzVVn][img]https://www.jiopic.com/images/2017/05/25/vlcsnap-2017-05-24-17h06m15s707.th.png[/img][/url][/center] ]]>
A Butterfly in the District of Dreams iSO-DARKSiDERS http://glodls.to/torrent.php?id=2529777 http://glodls.to/torrent.php?id=2529777 Wed, 24 May 2017 22:12:21 +0100 Games [center][img]https://s24.postimg.org/at27w38qd/header.jpg[/img][/center]






? ?

? ?
? ?
?? ??
???????? ?????? ?????? ??????
?????????????????? ???? ??? ????????? ????????? ?????????? ?????????????????????
?????????????????? ???? ???? ???? ???? ???? ???? ????????? ?????????????????????
?????????????????? ???? ? ? ? ??? ?? ? ????? ? ? ??? ?????????????????????
? ? ???? ???? ???? ???? ? ?? ?????? ??
?????????????? ??? ???? ???? ???? ???? ???? ???? ???? ???? ???? ???????????????
???????????? ??? ?????? ???? ???? ???? ???? ???? ???? ???????? ??? ?????????????
???????????? ? ???? ???? ???? ???? ???? ???? ???? ?????? ? ?????????????
???????????? ?? ??? ??? ?????????????????????????????? ? ?????????????
????????????? ?? ???? ? ??? ???? ???? ??? ??? ?? ?????????????
?????????????? ?????? ???? ?????? ?????? ????? ??????? ??????????????
?????????????? CrAcKHeAd`KiNG.19 ??????????????
????????????? ?????? ??????? ???????????????? ?????? ?????????????
??????????? ????? ?? ?? ? ????? ? ?????? ??? ?????? ? ??????? ?????????????
??????????? ?? ? ???? ???? ???? ???? ???? ???? ?????? ?? ???? ???? ?????????????
??????????? ????????? ???? ???? ?? ? ????? ????????? ????????? ?????????????
??????????? ???? ? ?? ? ?? ???? ???? ???? ????????? ???? ???? ? ?? ?????????????
?????????? ?? ? ???? ???? ???? ???? ???? ???? ???? ???? ? ?? ???? ????????????
????????????????????????????????????????????? ??????????
???????????????? ???? ????????? ? ? ???? ???? ???? ? ?? ???? ??????????????????
???????????????? ???? ????????? ???? ???? ???? ???? ???? ???? ??????????????????
???????????????? ???? ????????? ???? ???? ???? ???? ???? ???? ??????????????????
? ???? ???????? ???????? ??????????? ?
? ???? ?????? ?????? ?????? ??? ?
? ???????? ???????? ?
? ?????? . D A R K S i D E R S . 2 0 1 7 .?????? ?
? ! P R O U D L Y . P . R . E . S E N T S ! ?
? ?????? ?????? ?????? ?????? ?????? ?????? ?
? ???? ???? ???? ???????? ???? ????? ???? ??????????? ?
? ???????????????????????????? ??????????????????? ???????????????????? ?
? ???? ??????? ??? ??? ??????? ????????????? ???? ????? ???? ???? ???? ?
? ???????????????????? ??????????? ???? ???? ?????????? ???? ????????? ?
???? ???? ?? ???? ???? ?????????? ??? ???? ???? ????? ???? ???? ???? ???? ?????
???? ???????????? ??????????????????????????? ???? ??????????????
???? ???? ?? ???? ?? ???? ??????? ???????? ???? ????? ???? ???? ???? ???? ?????
???? ???? ?? ???? ?? ???????????? ?????? ???? ??? ???? ???? ???? ???? ?????
???? ???? ?? ???? ?? ???? ?? ???? ?????? ???????? ??? ???? ???? ???? ???? ?????
???? ???? ?? ???? ?? ???? ?? ???? ???????? ???? ????? ???? ???? ???? ???? ?????
???? ???? ???? ???????? ???????????? ????
???? ???? ?? ???? ???????? ?????? ?????? ???? ???? ???? ?????
???? ???? ?????? D A R K S i D E R S ???? ????
???? ???? ???????? ???????? ?? ???? ?????
???? ???? ?? ???? O T A K U . S E C T i O N . P R O U D L Y ???? ?? ???? ?????
? ???? ???? ?
? ???????? ! P . R . E . S E N T S ! ???????? ?
? ???? ???? ?
? A.Butterfly.in.the.District.of.Dreams.iSO-DARKSiDERS ?
? ?
? Product:........................: A Butterfly in the District of Dreams ?
? Developer:..............................................: Life a Little ?
? Publisher:..............................................: Sekai Project ?
? Genre:....................................: Visual Novel, Anime, Casual ?
? Language:..........................................: English / Japanese ?
? Protection:.....................................................: NOONE ?
? Number of Players:.......................................: Singleplayer ?
? Release Date:..............................................: 24.05.2017 ?
? Original Date:.............................................: 13.05.2015 ?
? Packet Count:..................................................: 1 DiSC ?
? Supplier:..........................................................: PP ?
? Packer:..................................................: dadwithwings ?
? Cracker:.................................................: dadwithwings ?
? ?
? http://store.steampowered.com/app/617430/ ?
? ?
? * !!SORRY MiSSED THiS WHEN CAME OUT, BUT ATLEAST WE DiDNT NEGLECT THiS!! * ?
? ???? ???? ?
? ???????? ???????? ?
? ???? ???? ?????? ???? ?
????????????????? ???? ???????? ????????? ???????? ???? ??????????????????????
???? ???? ?????? ?????? ???? ??????????
????????????????? ???? ?? ???? ???? ? ???? ???? ?? ???? ???? ?????????????????
???? ???? ????? ?????????? ???? ????
????????????????? ???? ?? ???? ????? ? ?????????? ?? ???? ???? ?????????????????
????????????????? ???? ?? ?????????? ? ???? ?????? ? ???? ???? ?????????????????
????????????????? ?? ?? ?????????? ? ???? ?????? ???? ????
???? ????? ???? ?????? ???? ???? ?????????????????
???????????????? ?????? ? ????? ???? ? ???? ??????? ???? ?? ???????????????????
???????????????????????? ???? ?????? ???? ???????? ????? ?????????????????????
???????????????????????? ?????? ????? ?????? ?????? ????? ??????????????????????

????????????????????????????????????????????????????????????????????????????????
? ?
? An otherworldly town and the people who occupy it... ?
? It feels as if time doesn't pass here. This is the story ?
? of Olive Village, and the people who make it special. ?
? ?
? ?????? ?
? ???? ? ? ???? ?
? ???????? ???? ???????? ?
?????????????????????? ???? ? ?????????????? ? ????????? ?????? ??????????????
?????? ???? ???? ???? ? ? ? ??????
???????? ???? ?????? ? ?????????? ???? ???? ???? ? ???? ???? ? ? ??????????
????????? ? ? ? ? ? ???? ? ? ? ???? ???? ???? ? ???? ???? ???? ??????????
????????? ???? ???? ?? ???? ???? ? ???? ???? ???? ? ???? ???? ???? ??????????
????????? ???? ???? ?? ???? ???? ? ???? ???? ???? ? ???? ???? ???? ??????????
???? ???? ???? ???? ???? ????? ???? ???? ????
????????? ???? ???? ?? ???? ???? ? ???? ????? ????? ?????? ????????? ??????????
???? ???? ???? ???? ???? ???? ? ?
????????? ???? ???? ?? ???? ???? ? ???? ????? ????? ?????? ???? ???? ??????????
???? ???? ???? ???? ???? ????? ? ? ? ? ????
????????? ???? ???? ?? ???? ? ?? ? ???? ???? ???? ? ???? ???? ???? ??????????
????????? ???? ????? ?? ???? ??? ? ???? ???? ???? ?? ???? ???? ???? ??????????
????????? ?????????? ?? ???? ?? ??? ???? ???? ???? ?? ???? ???? ???? ??????????
????????? ??????? ? ?? ?????? ???? ???? ???? ???? ?? ???? ???? ???? ??????????
???? ?????? ? ?? ???? ?? ? ???? ???? ????
????????? ???? ?????? ???????? ???? ???? ??? ????????????? ?????????? ??????????
??????? ??? ??? ???????????????? ??? ??? ??????????????????? ???????? ????????
???????? ?????? ?????????????????? ?????? ????????????????????? ?????? ?????????
? ?
? 1. Unpack, mount or burn! ?
? ?
? 2. WATCH iNTRO ON THE DiSC!!!!!!!!!!!!!!!!!!!!!! ?
? ?
? 3. Copy crack from disc OR Let our installer do it for you ;) -noneed! ?
? ?
? 4. Play! AND Also, BUy ThiS GeM iF LikE eNoUGH! DEVs DeSeRVe SuPPORt!!! ?
? ?
? ?????? ?????? ?????? ?????? ?????? ????? ?
? ? ? ? ? ? ? ? ? ? ? ? ? ?
?????????? ???? ???? ???? ???? ???? ????? ???? ???? ???? ? ???? ???????????????
?????????? ?????????????????? ?????????? ?????????? ???? ?????????? ?????????
???? ???? ???? ? ?? ???? ? ? ???? ? ? ???? ???? ? ?
?????????? ???? ???? ???? ???? ???? ???? ???? ???? ???? ? ???? ???? ??????????
?????????? ???? ? ? ???????? ???? ???? ???? ???? ???? ? ???? ???? ??????????
?????????? ???? ???? ???? ???? ??? ???? ???? ???? ???? ? ???? ???? ??????????
?????????? ???? ???? ???? ??????? ? ??? ???????? ????????? ??????????
?? ?????? ???? ???? ???? ? ? ??? ???? ???? ????? ????
?????????? ???? ? ? ???? ???? ???? ???? ???? ? ? ???? ???? ???? ??????????
?????????? ???? ???? ???? ???? ???? ???? ???? ???? ???? ? ???? ???? ??????????
?????????? ???? ???? ???? ???? ???? ???? ???? ???? ???? ? ???? ???? ??????????
?????????? ????????? ???? ???? ???? ???? ???? ???? ???? ???? ????
?????????? ???? ???? ???? ? ? ? ? ???? ???? ???? ???? ? ???? ? ? ??????????
?????????? ???? ???? ???????????? ??????? ?????????? ???? ?????????? ??????????
???????? ??? ??? ??? ???? ???? ??? ??? ??? ??? ??? ???????? ????????
????????? ?????? ?? ?????? ?????? ?????? ?????? ?????? ?????????
? ?
? WE GREET OUR FRiENDS iN: ?
? ----------------------- ?
? ** VACE - BEAN - CRD - MegaSoft ** ?
? ** WAX - JAVSiDERS - z0ne - TiTANDEMO ** ?
? ** ALSO THOSE WE DONT MENTiON KNOW WE STiLL RESPECT ! ;) ** ?
? ** ALSO OF FUCKiN COURSE WHOLE JAPANESE RLS SCENE! ** ?
? ?
? Personal greets: !a9 - aSi - CxA - sex0rZ - My weed dealer ?
? ?
? Also greetings to all the ART & OLDSKOOL GROUPS out there! ?
? And those for remember this is just for fun and friendly competition ... ?
? All groups who release JAPANESE stuff! ?
? ?
? ?????? ?????? ?
? ? ? ? ? ?
? ???? ???? ?
???????????? ???? ??????????????????????????????????????? ???? ?????????????????
???????????? ?????????? ????????????????????????????????? ?????????? ???????????
???????????? ???? ? ? ???????????????????????????????? ???? ???? ????????????
???????????? ???? ???? ?????? ?????????????? ?????? ????? ???? ???? ????????????
???????????? ???? ???? ? ? ?????????????? ? ? ????? ???? ? ? ????????????
???????????? ???? ???? ???? ???????????????? ???? ?????? ???? ???? ????????????
???????????? ???? ???? ???? ???????????????? ???? ?????? ???????? ????????????
???????????? ?????????? ???????? ?????? ???? ???? ????? ???? ?????????????????
???????????? ?? ? ? ? ???? ???? ? ? ????? ???? ? ? ???? ?????????????????
???????????? ???? ???? ???????? ???? ????? ???? ???? ? ???? ?????????????????
???????????? ???? ???? ???? ???? ???? ????? ???? ???? ? ???? ?????????????????
???????????? ????????? ???? ? ? ????????? ???? ???? ? ???? ?????????????????
???????????? ???? ???? ???? ???? ???? ? ? ???? ???? ???? ?????????????????
?????????? ??? ??? ??? ???? ???? ???? ???? ???? ???? ??? ??? ???????????????
??????????? ?????? ??? ???? ???? ???? ???? ???? ???? ?????? ????????????????
??????????????????????? ???? ???? ???? ???? ???? ? ? ???????????????????????
??????????????????????? ???? ???? ???? ???? ?????????? ???????????????????????
??????????????????????? ???? ???? ???? ???? ???? ?????????????????????????????
??????????????????????? ?????????? ???? ???? ???? ?????????????????????????????
????????????????????? ??? ??? ??? ???? ?? ??? ??? ???????????????????????????
????????????????????? ?????? ???? ????? ??? ?????? ???????????????????????????
??????????????????????? ???? ?????????????????????????????
?????????????????????????????????? ???? ????????????????????????????????????????
? ??? ??? ?
? ?????? ?
? ?
? THESE RELEASES ARENT MEANT FO YOU TORRENT GUYS, THiS iS FROM SCENE TO ?
? SCENE THiNG!! SO BiG FUCK YOU TO ALL P2P LEAKERS AND ALL WHO MAKE $$$ ?
? WiTH WAREZ!! ?
? ?
? ALSO DONT FORGET TO BUY THA GAME iF U LiKE iT, DEVS DESERVE SUPPORT!! ?
? ---------------------------------------------------------------------------- ?
? ALSO WE STiLL HAVE ROOM FOR COUPLE MEMBERS, THOU BE QUiCK ;) ?
? ---------------------------------------------------------------------------- ?
? ?
? * We are lookin for coders/crackers and Asian and Nordic Sites! * ?
? * Other Respectaple sites also * ?
? * Also supplier who have access to JAPANESE retail, ANY SECTiON! * ?
? * Ebook and Games supplys wanted!! dont hesitate! * ?
? ?
? ?????? ?????? ?
? ? ? CONTACT US: !! NEW E-MAiL !! DARKSTARS@PROTONMAiL.COM !! ? ? ?
? ???? ???? ?
????? ???? ??????????????????????????????????????????????????????????? ???? ????
????? ???? ??????????????????????????????????????????????????????????? ???? ????
????? ???? ??????????????????????????????????????????????????????????? ???? ????
???? ????
???? THiS iS "OTAKU" SECTiON OF DARKSiDERS, WE PRE "OTAKU" STUFF ????
???????? AKA ALL THiNGS EVEN REMOTELY JAPANESE ????????
?????? ??????
?? ??

]]>
Rise Of The Tomb Raider 20 Years Celebration-CPY http://glodls.to/torrent.php?id=2529776 http://glodls.to/torrent.php?id=2529776 Wed, 24 May 2017 22:10:08 +0100 Games [center][img]https://s14.postimg.org/6txhhklkh/header.jpg[/img][/center]





???
?? ????????? ? ???
??? ???????? ??
??? ?? ?? ?
?? ??? ?? ?? ?? ????? ??
??? ??? ?? ????? ?????? ?????? ??????? ? ???? ???? ?????? ??? ???
?? ??? ?? ?????? ??? ??? ??? ??? ??? ???? ???? ?? ??? ??? ?? ??? ???
??? ??? ?? ??? ??? ??? ??? ??????? ??? ??? ??? ??? ?? ???? ??? ???????
??? ??? ?? ??? ?? ??? ??? ?????? ??? ??? ??? ??? ?? ???? ??? ? ?? ???
??? ??? ?? ???? ?? ??? ??? ? ?????? ??? ???? ??? ??? ?????? ? ???
??? ??? ?? ?????? ??? ?? ??????? ??? ? ??? ???? ?? ??? ???? ? ???
???? ?? ?? ??? ??? ? ??????? ??? ? ??? ???? ?? ?? ???? ??
??? ?? ?? ??? ?? ???? ?? ??? ?? ?? ? ?? ? ??
????? ?? ? ?? ? ? ?? ? ?? ?? ? ? ? ?
???? ?? ? ?? ? ? ??? ? ?? ? ?
?????? ?? ??? ? ? ? ? ? ? ? ? ?
???????????? ?
??????????? ? ????? R E L E A S E D ? F O R ? Y O U ??????????????????? ?
??????????
? ?
? ?
?? ??
???? ????? ?? ????? ?? ????? ????? ????
???????? ? ?? ?? ?? ?? ?? ?? ?? ?? ?? ?? ?? ? ????????
??????????? ?????? ?? ?? ?????? ??? ?? ?? ??? ?? ?? ???????????
???????? ? ?????? ?? ?? ?????? ?? ??? ???? ?? ?? ? ????????
???? ?? ??? ??????? ?????? ?? ?? ?? ?????? ????
?? ??
? ?
? ?

RELEASE NAME ???????? Rise.Of.The.Tomb.Raider.20.Years.Celebration-CPY
RELEASE DATE ???????? 24/05/2017
SHOP RELEASE DATE ??? 11/10/2016
RELEASE TYPE ???????? GAME
KIND ???????????????? ADVENTURE
FORMAT ?????????????? ISO
PROTECTION ?????????? Steam + Denuvo v3 x64
FILES N ????????????? 125x250MB



In the wake of her father's death, Lara's uncle challenges her
ownership of Croft Manor. Lara must explore her childhood home in
the new "Blood Ties" story mode to reclaim her legacy and uncover
a family mystery that will change her life forever.
In "Lara's Nightmare" hordes of the undead overrun Croft Manor, and
Lara must defend it before the nightmare overwhelms her! "Blood Ties"
includes over an hour of additional single player story, as well as
community challenges with card modifiers that allow you to compete
against your friends' scores in "Lara's Nightmare". This pack also
includes five classic Lara Croft skins, an outfit and weapon inspired
by Tomb Raider III, and the new "Extreme Survivor" difficulty setting
for the main campaign. With over an hour of new story, a replayable
combat mode, classic skins, a new outfit and weapon, and a new difficulty
mode, this is the perfect way to celebrate 20 years of the iconic Lara Croft.


Instructions:

- Burn or mount the image
- Install the game
- Copy the crack
- Enjoy

? ?
? ?
?? ??
???? ?? ????? ???? ????? ????? ????
???????? ? ?? ?? ?? ?? ?? ?? ?? ?? ?? ? ????????
???????????????? ??? ?? ?? ?? ?? ?? ?? ??? ?????? ????????????????
???????? ? ?? ??? ?? ?? ?? ?? ?? ?????? ? ????????
???? ?? ?? ?????? ?????? ?????? ?????? ????
?? ??
? ?
? "Always Outnumbered, Never Outgunned" ?

Freakin'Finally :)

- Game is updated to the latest version and includes all languages & DLCs.

? ?
? ?
?? ??
???? ????? ????? ????? ?? ????? ????
???????? ? ?? ?? ?? ?? ?? ?? ? ?? ?? ?? ? ????????
??????????????? ??????? ?????? ?? ?? ?? ?? ?????? ??????????????
???????? ? ?? ??? ??????? ?? ?? ?? ?? ?? ? ????????
???? ?????? ?? ??? ?????? ?????? ?? ????
?? ??
? Established in 1999, we are possibly the oldest Italian-based ?
? release group still in activity. We express a big THANK YOU to ?
all those friends who helped us in various forms throughout thes
years! Don't forget to support the companies and to keep the
Scene about FUN. :-)
?·?

Fondato nel 1999, CPY e' probabilmente il piu' vecchio gruppo
release in Italia ancora in attivita'. Ringraziamo DI CUORE tutti
gli amici che ci hanno aiutati in ogni maniera in questi anni!
Ricordate di supportare le compagnie cinematografiche e di
? software, e che la Scena dev'essere basata sul DIVERTIMENTO. :-) ?
?? ?
???? ????? ????? ?? ? ??
?????? ? ?? ?? ?? ?? ?? ?? ? ????
??????????????????????? ??? ?? ?????? ??????? ????????????????????????
?????? ? ?? ?? ?? ?? ? ??????
???? ?????? ?? ?? ????
?? ??
??? Greets to CODEX, ENCRyPTED - iAT & all our friends. ???
??? ???
??? ? ? ???
????? ??? ??? ?????
????????? Ascii ? gK ?????????
???? ????



]]>
Quarantine-CODEX http://glodls.to/torrent.php?id=2529775 http://glodls.to/torrent.php?id=2529775 Wed, 24 May 2017 22:08:17 +0100 Games [center][img]https://s10.postimg.org/8xtb0zkk9/header_italian.jpg[/img][/center]



??????? ??? ??
?????? ?????? ??????????? ??????? ?????
???????? ???????? ??????????? ????????? ????? ?
? ???? ????? ????? ???? ???? ????? ??????????? ????? ??
? ???? ????? ??? ??? ??? ??????? ??????? ????? ??
???? ?? ??? ?????? ?????? ????? ?????? ???
? ??? ??? ?????? ????????? ?????????? ????
?? ??? ??? ?????? ???????? ???????? ????
?? ??? ???? ??????? ??????? ?????? ??????
??? ???? ??????? ??? ??? ???????? ???????????? ??????
???? ????? ????? ???? ????? ???? ????? ????? ?????????????? ???????
??? ?????????? ?????????? ????????? ??????????????? ????? ??????
???? ???????? ? ???????? ???????? ???????????? ????? ?????
?????? ?????? ?? ?????? ??????? ?? ?????????? ? ????? ????
?????? ???? ???? ???? ? ????? ???? ???????? ??? ????? ?????
???????? ????????? ?????? ?????????? ???????? ?????
?????????????????????????????????????????????????????????????????
???????????????????????????????????????????????????????????????
???????????????????? ???? ???? ????????????????????
?? ????? ?????? C O D E X ?????? ????? ??
? ??? ? ? ??? P R E S E N T S ??? ? ? ??? ?
????? ?? ????????????????? ?? ?????


Quarantine (c) 505 Games


Release Date : 05/2017 Protection : Steam
Discs : 1 Genre : RPG

???? ????
??????? ?? ??? ??? ? ??? ??? ??? ??? ? ??? ??? ??? ?? ???????
?? ???? ? ?? ? ??? ?? ? ?? ??? ??? ?? ? ? ? ?? ? ? ? ?? ? ???? ??
????? ????? ? ? ??? ??? ??? ? ? ??? ??? ? ? ? ? ??? ????? ?????
???????????????????? ??????? ??? ??? ??????? ????????????????????
?? ?????? ?????? ??? ????? ?? ?? ????? ??? ?????? ?????? ??
? ??? ? ? ??? ??? ???? ???? ??? ??? ? ? ??? ?
????? ?? ? ? ?? ?????


Quarintine is an intense turn-based strategy game about waging war
on global disease.

For more info go to : http://store.steampowered.com/app/489370/


???? ????
??????? ?? ? ??? ??? ??? ??? ? ? ??? ??? ??? ??? ??? ?? ???????
?? ???? ? ?? ? ? ? ??? ? ??? ? ? ? ? ? ? ? ?? ??? ?? ? ???? ??
????? ??? ? ? ? ??? ? ? ? ??? ??? ? ? ??? ? ??? ??? ??? ?????
???????????????????? ??????? ??? ??? ??????? ????????????????????
?? ?????? ?????? ??? ????? ?? ?? ????? ??? ?????? ?????? ??
? ??? ? ? ??? ??? ???? ???? ??? ??? ? ? ??? ?
????? ?? ? ? ?? ?????


- Extract
- Burn or mount the .iso
- Run setup.exe and install
- Copy crack from CODEX dir to installdir
- Play


General Notes:

- Block the game's exe in your firewall to prevent the game from
trying to go online ..
- If you install games to your systemdrive, it may be necessary
to run this game with admin privileges instead


???? ????
??????? ?? ??? ??? ??? ? ? ??? ??? ??? ??? ??? ??? ?? ???????
?? ???? ? ?? ? ? ? ??? ? ? ? ? ??? ? ? ? ? ? ?? ??? ? ?? ? ???? ??
????? ?????? ??? ? ? ??? ??? ? ? ? ??? ? ??? ??? ?????? ?????
???????????????????? ??????? ??? ??? ??????? ????????????????????
?? ?????? ?????? ??? ????? ?? ?? ????? ??? ?????? ?????? ??
? ??? ? ? ??? ??? ???? ???? ??? ??? ? ? ??? ?
????? ?? ? ? ?? ?????

CODEX is currently looking for
???? ????
??? ?? ? nothing but competition! ? ?? ???
???? ???? ???? ????
????????? Greetings to CPY ?????????
???? ????? ?? ?? ????? ????
?? ? ?????????????? ? ? ? ?????????????? ? ??
?????? ? ? ? ? ?? ????? ? ? ? ????? ?? ? ? ? ? ??????
?? ? ? ?? ?? ? ?? ?? ? ? ??
???? LNK^CPS ????
?? 02/2015 ??
? ? ?
? ????? ?
? ? ? ? ?
?? ??
]]>
60 Seconds Die for Valhalla Update v1 209-PLAZA http://glodls.to/torrent.php?id=2529774 http://glodls.to/torrent.php?id=2529774 Wed, 24 May 2017 22:06:35 +0100 Games
17/05/2017 1.209 Beren Style Challenge

- Beren Style challenge
- engine update
- challenges GUI work
- army comes and player fails bug fix
- counterattack shows when no items and too often bug fix
- explorer dies after expedition bug fix
- hard, medium, easy achievements not unlocked bug fix
- book update (IT, RU, PT fixes)
- lightmaps update
- conclusion stats fixes
- T50

29/03/2017 1.208 Anniversary Challenge

- added the Anniversary challenge
- MJ survival sorting layer fix
- YES/NO decision counting fix
- RU challenge strings fix
- Disaster events appear when no items present fix
- Challenge sorting fix
- Auto end challenge outside shelter fix

17/03/2017 1.207 Timmy's Scout Camp Challenge

- added Timmy's Scout Camp challenge
- book update
[/code]


[code]
??????? ??
????????????????? ?????
??? ?????? ??? ??
??? ???? ???? ??? ?
?? ???? ???? ??? ??
?? ??? ???? ??? ??
?? ???? ???? ?????
????? ??? ???? ????? ?????? ???????????? ?????
???? ???? ??????? ????? ???????? ????????????? ????????
?? ???? ?????? ???? ???? ??? ?? ???? ???? ???
???? ??? ??? ??? ? ???? ??? ???
???? ??? ??? ???? ?? ???? ??? ???? ?
?? ???? ??? ??? ???? ?? ??? ?????? ???? ??
?? ??? ??? ???? ????? ??? ?????? ?? ????? ???
??????? ????????????? ?????? ?????? ?????? ??????
??? ???? ??? ????? ???? ?? ??? ????
?? ???
??? ????
????????
????

-P-R-E-S-E-N-T-S-

60 Seconds Die for Valhalla Update v1.209 (c) Robot Gentleman


Release Date : 05/2017 Protection : Steam
Discs : 1 Genre : Strategy

???????????? ? ? ????? ????? ????? ? ? ? ? ? ??????????????
? ????? ????? ? ? ? ? ??? ?
??????????? ? ? ? ? ????? ????? ????? ????? ? ? ?????????????


For list of changes read included patchnotes.txt


?????????? ? ? ? ????? ????? ? ????? ? ? ? ? ??????????
? ? ? ? ????? ??? ????? ? ? ?
????????? ? ? ? ? ? ????? ????? ? ? ????? ????? ? ? ?????????


1. Extract release
2. Run setup.exe
3. Install update
4. Copy crack from the PLAZA folder
5. Play!

This patch requires:

60.Seconds.Die.for.Valhalla-PLAZA


General Notes:

- Block the game's exe in your firewall to prevent the game from
trying to go online ..
- If you install games to your systemdrive, it may be necessary
to run this game with admin privileges instead


??????????? ? ? ????? ????? ????? ????? ? ????? ? ? ???????????
? ? ??? ????? ????? ????? ??? ????? ?
?????????? ? ? ????? ? ? ????? ????? ????? ????? ? ? ??????????

CODEX - CPY - ENiGMA - SiMPLEX - ACTiVATED - ADDONiA

???????????????? ? ? ????? ????? ? ? ? ????? ? ? ??????????????????
? ? ? ????? ? ? ? ????? ?
??????????????? ? ? ? ? ????? ????? ????? ? ? ?????????????????

Coming soon...
[/code] ]]>
Steel Division Normandy 44 Update Build 80629-CODEX http://glodls.to/torrent.php?id=2529773 http://glodls.to/torrent.php?id=2529773 Wed, 24 May 2017 22:05:08 +0100 Games FIX:
Chinese localization updated
Fixes some russian sentences which were too long
Fixes some minor typos in other languages
Kurt Meyer's biography now matches his portrait[/code]


[code] ??????? ??? ??
?????? ?????? ??????????? ??????? ?????
???????? ???????? ??????????? ????????? ????? ?
? ???? ????? ????? ???? ???? ????? ??????????? ????? ??
? ???? ????? ??? ??? ??? ??????? ??????? ????? ??
???? ?? ??? ?????? ?????? ????? ?????? ???
? ??? ??? ?????? ????????? ?????????? ????
?? ??? ??? ?????? ???????? ???????? ????
?? ??? ???? ??????? ??????? ?????? ??????
??? ???? ??????? ??? ??? ???????? ???????????? ??????
???? ????? ????? ???? ????? ???? ????? ????? ?????????????? ???????
??? ?????????? ?????????? ????????? ??????????????? ????? ??????
???? ???????? ? ???????? ???????? ???????????? ????? ?????
?????? ?????? ?? ?????? ??????? ?? ?????????? ? ????? ????
?????? ???? ???? ???? ? ????? ???? ???????? ??? ????? ?????
???????? ????????? ?????? ?????????? ???????? ?????
?????????????????????????????????????????????????????????????????
???????????????????????????????????????????????????????????????
???????????????????? ???? ???? ????????????????????
?? ????? ?????? C O D E X ?????? ????? ??
? ??? ? ? ??? P R E S E N T S ??? ? ? ??? ?
????? ?? ????????????????? ?? ?????


Steel Division: Normandy 44 Update Build 80629 (c) Paradox Interactive


Release Date : 05/2017 Protection : Steam
Discs : 1 Genre : Action

???? ????
??????? ?? ??? ??? ? ??? ??? ??? ??? ? ??? ??? ??? ?? ???????
?? ???? ? ?? ? ??? ?? ? ?? ??? ??? ?? ? ? ? ?? ? ? ? ?? ? ???? ??
????? ????? ? ? ??? ??? ??? ? ? ??? ??? ? ? ? ? ??? ????? ?????
???????????????????? ??????? ??? ??? ??????? ????????????????????
?? ?????? ?????? ??? ????? ?? ?? ????? ??? ?????? ?????? ??
? ??? ? ? ??? ??? ???? ???? ??? ??? ? ? ??? ?
????? ?? ? ? ?? ?????


For list of changes read included patchnotes.txt



???? ????
??????? ?? ? ??? ??? ??? ??? ? ? ??? ??? ??? ??? ??? ?? ???????
?? ???? ? ?? ? ? ? ??? ? ??? ? ? ? ? ? ? ? ?? ??? ?? ? ???? ??
????? ??? ? ? ? ??? ? ? ? ??? ??? ? ? ??? ? ??? ??? ??? ?????
???????????????????? ??????? ??? ??? ??????? ????????????????????
?? ?????? ?????? ??? ????? ?? ?? ????? ??? ?????? ?????? ??
? ??? ? ? ??? ??? ???? ???? ??? ??? ? ? ??? ?
????? ?? ? ? ?? ?????


- Extract
- Run setup.exe and install update
- Copy crack from CODEX dir to installdir
- Play

You need the following releases for this :

Steel.Division.Normandy.44-CODEX


- Block the game's exe in your firewall to prevent the game from
trying to go online ..
- If you install games to your systemdrive, it may be necessary
to run this game with admin privileges instead


???? ????
??????? ?? ??? ??? ??? ? ? ??? ??? ??? ??? ??? ??? ?? ???????
?? ???? ? ?? ? ? ? ??? ? ? ? ? ??? ? ? ? ? ? ?? ??? ? ?? ? ???? ??
????? ?????? ??? ? ? ??? ??? ? ? ? ??? ? ??? ??? ?????? ?????
???????????????????? ??????? ??? ??? ??????? ????????????????????
?? ?????? ?????? ??? ????? ?? ?? ????? ??? ?????? ?????? ??
? ??? ? ? ??? ??? ???? ???? ??? ??? ? ? ??? ?
????? ?? ? ? ?? ?????

CODEX is currently looking for
???? ????
??? ?? ? nothing but competition! ? ?? ???
???? ???? ???? ????
????????? Greetings to CPY ?????????
???? ????? ?? ?? ????? ????
?? ? ?????????????? ? ? ? ?????????????? ? ??
?????? ? ? ? ? ?? ????? ? ? ? ????? ?? ? ? ? ? ??????
?? ? ? ?? ?? ? ?? ?? ? ? ??
???? LNK^CPS ????
?? 02/2015 ??
? ? ?
? ????? ?
? ? ? ? ?
?? ??[/code] ]]>
The.Olsen.Gang.1968.DVDRiP.x264-GECiSFAGYi[PRiME] http://glodls.to/torrent.php?id=2529772 http://glodls.to/torrent.php?id=2529772 Wed, 24 May 2017 22:00:15 +0100 Movies The.Olsen.Gang.1968.DVDRiP.x264-GECiSFAGYi[PRiME]

ImDb: [URL]http://www.imdb.com/title/tt0063386[/URL]

[url=https://www.sparrowpics.com/image/LwB][img]https://www.sparrowpics.com/images/2015/12/10/Info.png[/img][/url]

[color=green]Complete name : olsongang-gecisfagyi[PRiME].mkv
Format : Matroska
Format version : Version 4 / Version 2
File size : 820 MiB
Duration : 1 h 17 min
Overall bit rate : 1 483 kb/s
Encoded date : UTC 2017-05-24 21:31:43
Writing application : mkvmerge v8.5.1 ('Where you lead I will follow') 64bit
Writing library : libebml v1.3.3 + libmatroska v1.4.4

Video
ID : 1
Format : AVC
Format/Info : Advanced Video Codec
Format profile : High@L3.1
Format settings, CABAC : Yes
Format settings, ReFrames : 5 frames
Codec ID : V_MPEG4/ISO/AVC
Duration : 1 h 17 min
Bit rate : 1 413 kb/s
Width : 720 pixels
Height : 404 pixels
Display aspect ratio : 16:9
Frame rate mode : Constant
Frame rate : 25.000 FPS
Color space : YUV
Chroma subsampling : 4:2:0
Bit depth : 8 bits
Scan type : Progressive
Bits/(Pixel*Frame) : 0.194
Stream size : 781 MiB (95%)
Writing library : x264 core 150 r2829 d1fe6fd
Encoding settings : cabac=1 / ref=5 / deblock=1:0:0 / analyse=0x3:0x113 / me=umh / subme=8 / psy=1 / psy_rd=1.00:0.00 / mixed_ref=1 / me_range=16 / chroma_me=1 / trellis=2 / 8x8dct=1 / cqm=0 / deadzone=21,11 / fast_pskip=1 / chroma_qp_offset=-2 / threads=13 / lookahead_threads=2 / sliced_threads=0 / nr=0 / decimate=1 / interlaced=0 / bluray_compat=0 / constrained_intra=0 / bframes=3 / b_pyramid=2 / b_adapt=1 / b_bias=0 / direct=3 / weightb=1 / open_gop=0 / weightp=2 / keyint=250 / keyint_min=25 / scenecut=40 / intra_refresh=0 / rc_lookahead=50 / rc=crf / mbtree=1 / crf=19.0 / qcomp=0.60 / qpmin=0 / qpmax=69 / qpstep=4 / ip_ratio=1.40 / aq=1:1.00
Default : Yes
Forced : No

Audio
ID : 2
Format : AAC
Format/Info : Advanced Audio Codec
Format profile : LC
Codec ID : A_AAC
Duration : 1 h 17 min
Bit rate : 67.9 kb/s
Channel(s) : 1 channel
Channel positions : Front: C
Sampling rate : 48.0 kHz
Frame rate : 46.875 FPS (1024 spf)
Compression mode : Lossy
Delay relative to video : 9 ms
Stream size : 37.6 MiB (5%)
Language : Hungarian
Default : Yes
Forced : No

Text
ID : 3
Format : UTF-8
Codec ID : S_TEXT/UTF8
Codec ID/Info : UTF-8 Plain Text
Duration : 1 h 15 min
Bit rate : 32 b/s
Count of elements : 441
Stream size : 18.1 KiB (0%)
Language : English
Default : Yes
Forced : Yes

Menu
00:00:00.000 : hu:Chapter 00:00:00
00:10:00.200 : hu:Chapter 2
00:20:00.400 : hu:Chapter 3
00:30:00.600 : hu:Chapter 4
00:40:00.200 : hu:Chapter 5
00:50:00.640 : hu:Chapter 6
01:00:00.080 : hu:Chapter 7
01:10:00.240 : hu:Chapter 8[/color]

[url=https://www.sparrowpics.com/image/UYe][img]https://www.sparrowpics.com/images/2015/12/10/Screens.png[/img][/url]

[color=red]Click Image To View Full Size[/color]

[URL=https://www.sparrowpics.com/image/7kfzP][IMG]https://www.sparrowpics.com/images/2017/05/25/7kfzP.th.jpg[/IMG][/URL]
[URL=https://www.sparrowpics.com/image/7kwDm][b]Click To View Screenshot[/b][/URL]
[URL=https://www.sparrowpics.com/image/7k21r][b]Click To View Screenshot[/b][/URL]
[URL=https://www.sparrowpics.com/image/7kBiW][b]Click To View Screenshot[/b][/URL]

[/center] ]]>
Sergei Eisenstein Autobiography 720p DVD x264 AAC mkv http://glodls.to/torrent.php?id=2529732 http://glodls.to/torrent.php?id=2529732 Wed, 24 May 2017 22:00:02 +0100 TV http://www.tvrage.com/schedule.php?show_yesterday=1. ]]> White Gold S01E01 HDTV x264-MTB http://glodls.to/torrent.php?id=2529731 http://glodls.to/torrent.php?id=2529731 Wed, 24 May 2017 22:00:01 +0100 TV http://www.tvrage.com/schedule.php?show_yesterday=1. ]]> Get.Out.(2017)1080p.BRRip.x264.AC3.Plex.mp4 http://glodls.to/torrent.php?id=2529730 http://glodls.to/torrent.php?id=2529730 Wed, 24 May 2017 21:54:54 +0100 Movies [color=red][b]
Get.Out.(2017)1080p.BRRip.x264.AC3.Plex.mp4

[/b][/color]


IMDb: http://www.imdb.com/title/tt5052448





[url=https://boltimg.com/image/t52z][img]https://boltimg.com/images/t52z.png[/img][/url]



[color=green][b]
No information available.
[/b][/color]


[url=https://boltimg.com/image/tzTE][img]https://boltimg.com/images/tzTE.png[/img][/url]



[color=purple][b](Click to enlarge)[/b][/color]

[url=https://boltimg.com/image/MKKW3][img]https://boltimg.com/images/MKKW3.th.jpg[/img][/url] [url=https://boltimg.com/image/MKPtn][img]https://boltimg.com/images/MKPtn.th.jpg[/img][/url] [url=https://boltimg.com/image/MKwZA][img]https://boltimg.com/images/MKwZA.th.jpg[/img][/url] [url=https://boltimg.com/image/MK4Pk][img]https://boltimg.com/images/MK4Pk.th.jpg[/img][/url] [url=https://boltimg.com/image/MKMim][img]https://boltimg.com/images/MKMim.th.jpg[/img][/url]

[/center]
]]>
Penthouse 16 06 05 Alexis Ford in Old Flame New Flame XXX 480p MP4-TK http://glodls.to/torrent.php?id=2529729 http://glodls.to/torrent.php?id=2529729 Wed, 24 May 2017 21:47:10 +0100 Adult XXX
[b]Screenshots:[/b]

[url]http://imgking.co/imgs-5925ff60b0c20.html[/url]

[url]http://imgking.co/imgs-5925ff60aa75e.html[/url]

[url]http://imgking.co/imgs-5925ff60a3a3c.html[/url]

[url]http://imgking.co/imgs-5925ff5c39b20.html[/url]

File Size : 192 MiB
Duration : 23mn 15s
Video : h264, yuv420p, 854x480p, 1024 Kbps
Audio : aac , 2 ch, stereo , 128 Kbps ]]>
Kerry, Kiara, Matt, Nick, Nomi, Tyra, Vicky - Face Sitting Compilation http://glodls.to/torrent.php?id=2529728 http://glodls.to/torrent.php?id=2529728 Wed, 24 May 2017 21:39:25 +0100 Adult XXX
[b]Date[/b]: 2017
[b]Cast[/b]: Kerry, Kiara, Matt, Nick, Nomi, Tyra, Vicky
[b]Genre[/b]: Facesitting, Oral
[b]Name[/b]: Face Sitting Compilation


[b]Video[/b]: AVC, 1920x1080, 30.000 FPS, 8000 kb/s
[b]Audio[/b]: AAC LC, 44.1 kHz, 2 channels, 314 kb/s
[b]Format[/b]: mp4
[b]Duration[/b]: 00:02:31
]]>
Shakira - El Dorado 2017 Mp3 320kbps [Hunter] http://glodls.to/torrent.php?id=2529727 http://glodls.to/torrent.php?id=2529727 Wed, 24 May 2017 21:36:39 +0100 Music
[img]https://extraimago.com/images/2016/10/28/f7a5336e77407b7dee00d04d696947d5.png[/img]
[b]Artist : Shakira

Album : El Dorado

Genre : Pop Latino

Release : 2017

Tracks : 13

Quality: Mp3, 320kbps

Total Time: 00:44:05

Total Size: 109 Mb[/b]
[img]https://extraimago.com/images/2016/10/28/99616de520d7b3ae31e87aceba477ea3.png[/img]
[b]01. Shakira – Me Enamoré (3:46)

02. Shakira – Nada (3:10)

03. Shakira – Chantaje (feat. Maluma) (3:15)

04. Shakira – When a Woman (3:18)

05. Shakira – Amarillo (3:40)

06. Shakira – Perro Fiel (feat. Nicky Jam) (3:16)

07. Shakira – Trap (feat. Maluma) (3:20)

08. Shakira & Black M – Comme moi (3:09)

09. Shakira – Coconut Tree (3:50)

10. Shakira & Carlos Vives – La Bicicleta (3:48)

11. Shakira & Prince Royce – Deja vu (3:16)

12. Shakira – What We Said (Comme moi) [feat. MAGIC!] [English Version] (3:00)

13. Shakira – Toneladas (3:09)
[/b]
[img]https://extraimago.com/images/2015/10/09/CjjF0uX3.gif[/img]
[/center]
]]>
Street Outlaws S08 E07 [Stuck In A Moment] 12 12 16 [WWRG] http://glodls.to/torrent.php?id=2529726 http://glodls.to/torrent.php?id=2529726 Wed, 24 May 2017 21:33:49 +0100 TV

[img]http://i.imgur.com/7ydyaOE.png[/img] ]]>
The.Illusionist.2006.FS.720p.BluRay.x264-FLAME[PRiME] http://glodls.to/torrent.php?id=2529725 http://glodls.to/torrent.php?id=2529725 Wed, 24 May 2017 21:26:38 +0100 Movies The.Illusionist.2006.FS.720p.BluRay.x264-FLAME[PRiME]

ImDb: [URL]http://www.imdb.com/title/tt0443543[/URL]

[url=https://www.sparrowpics.com/image/LwB][img]https://www.sparrowpics.com/images/2015/12/10/Info.png[/img][/url]

[color=green]Complete name : flame-the.illusionist.2006.fs.720p.bluray.x264[PRiME].mkv
Format : Matroska
Format version : Version 4 / Version 2
File size : 5.47 GiB
Duration : 1 h 44 min
Overall bit rate : 7 494 kb/s
Encoded date : UTC 2017-05-24 15:49:20
Writing application : mkvmerge v12.0.0 ('Trust / Lust') 64bit
Writing library : libebml v1.3.4 + libmatroska v1.4.5

Video
ID : 1
Format : AVC
Format/Info : Advanced Video Codec
Format profile : High@L4.1
Format settings, CABAC : Yes
Format settings, ReFrames : 8 frames
Codec ID : V_MPEG4/ISO/AVC
Duration : 1 h 44 min
Bit rate : 5 983 kb/s
Width : 1 280 pixels
Height : 720 pixels
Display aspect ratio : 16:9
Frame rate mode : Constant
Frame rate : 25.000 FPS
Color space : YUV
Chroma subsampling : 4:2:0
Bit depth : 8 bits
Scan type : Progressive
Bits/(Pixel*Frame) : 0.260
Stream size : 4.37 GiB (80%)
Writing library : x264 core 150 r2829 d1fe6fd
Encoding settings : cabac=1 / ref=8 / deblock=1:-2:-2 / analyse=0x3:0x133 / me=umh / subme=9 / psy=1 / psy_rd=1.00:0.00 / mixed_ref=1 / me_range=16 / chroma_me=1 / trellis=2 / 8x8dct=1 / cqm=0 / deadzone=21,11 / fast_pskip=0 / chroma_qp_offset=-2 / threads=12 / lookahead_threads=1 / sliced_threads=0 / nr=0 / decimate=1 / interlaced=0 / bluray_compat=0 / constrained_intra=0 / bframes=3 / b_pyramid=2 / b_adapt=2 / b_bias=0 / direct=3 / weightb=1 / open_gop=0 / weightp=2 / keyint=250 / keyint_min=25 / scenecut=40 / intra_refresh=0 / rc_lookahead=60 / rc=2pass / mbtree=1 / bitrate=5983 / ratetol=1.0 / qcomp=0.60 / qpmin=10 / qpmax=69 / qpstep=4 / cplxblur=20.0 / qblur=0.5 / ip_ratio=1.40 / aq=1:0.70
Language : English
Default : Yes
Forced : No

Audio
ID : 2
Format : DTS
Format/Info : Digital Theater Systems
Mode : 16
Format settings, Endianness : Big
Codec ID : A_DTS
Duration : 1 h 44 min
Bit rate mode : Constant
Bit rate : 1 509 kb/s
Channel(s) : 6 channels
Channel positions : Front: L C R, Side: L R, LFE
Sampling rate : 48.0 kHz
Frame rate : 93.750 FPS (512 spf)
Bit depth : 16 bits
Compression mode : Lossy
Stream size : 1.10 GiB (20%)
Title : English DTS 1509 kbps
Language : English
Default : Yes
Forced : No

Menu
00:00:00.000 : :
00:04:33.759 : :
00:06:03.399 : :
00:12:34.278 : :
00:21:05.278 : :
00:28:23.278 : :
00:35:25.239 : :
00:41:21.159 : :
00:46:55.840 : :
00:51:40.440 : :
00:56:07.320 : :
01:02:50.800 : :
01:11:26.840 : :
01:17:03.920 : :
01:22:51.439 : :
01:34:22.198 : :[/color]

[url=https://www.sparrowpics.com/image/UYe][img]https://www.sparrowpics.com/images/2015/12/10/Screens.png[/img][/url]

[color=red]Click Image To View Full Size[/color]

[URL=https://www.sparrowpics.com/image/7kkYe][IMG]https://www.sparrowpics.com/images/2017/05/25/7kkYe.th.jpg[/IMG][/URL]
[URL=https://www.sparrowpics.com/image/7km4s][b]Click To View Screenshot[/b][/URL]
[URL=https://www.sparrowpics.com/image/7kvkf][b]Click To View Screenshot[/b][/URL]
[URL=https://www.sparrowpics.com/image/7kQW5][b]Click To View Screenshot[/b][/URL]

[/center] ]]>
[18Eighteen] Charity Crawford - One Lucky Nerd (24 05 2017) rq mp4 http://glodls.to/torrent.php?id=2529724 http://glodls.to/torrent.php?id=2529724 Wed, 24 May 2017 21:24:49 +0100 Adult XXX Audio: aac, 44100 Hz, 2 channels, s16, 107 kb/s (eng)
Video: h264, yuv420p, 854x480, 1500 kb/s, 29,97 fps(r) (eng)

http://www.pixsense.net/site/v/1829504#51&1829504

]]>
UltimateSurrender 17 05 24 Charlotte Sartre And Izamar Gutierrez XXX XviD SD http://glodls.to/torrent.php?id=2529723 http://glodls.to/torrent.php?id=2529723 Wed, 24 May 2017 21:24:23 +0100 Adult XXX
[b]Screenshots:[/b]

[url]http://imgking.co/imgs-5925fa0981fd5.html[/url]

[url]http://imgking.co/imgs-5925fa097d99a.html[/url]

[url]http://imgking.co/imgs-5925fa09790bf.html[/url]

[url]http://imgking.co/imgs-5925fa02aab3f.html[/url] ]]>
Trash Fire (2016) 720p BluRay x264 AAC ESubs - Downloadhub http://glodls.to/torrent.php?id=2529722 http://glodls.to/torrent.php?id=2529722 Wed, 24 May 2017 21:18:12 +0100 Movies
[img]https://extraimage.net/images/2017/05/10/0f98922bd359e7eaf5f6ad12fc86c758.png[/img]

[b][code]MOVIE INFO:
http://www.imdb.com/title/tt5076792/
[FORMAT]:…………………….[ Matroska
[CODEC]:………………[ x264
[GENRE]:……………………[ Comedy, Horror, Romance
[FILE SIZE]:……………………[ 758MB
[RESOLUTION]:……………….[ 1280x536
[LANGUAGE]:…………………[ English
[SUBTITLES]:………………..[ English
[ENCODER]:…………..[ Downloadhub
[SOURCE]:…………………..[ VALUE Thanks[/code]

[Medai Info]: [url]https://linkshub.club/index.php?ID=219204994720700-paste[/url]

Sample Including In Torrent[/b]

[url=https://www.jiopic.com/image/Xzcn2][img]https://www.jiopic.com/images/2017/05/25/vlcsnap-2017-05-24-16h06m47s596.th.png[/img][/url] [url=https://www.jiopic.com/image/XZaF3][img]https://www.jiopic.com/images/2017/05/25/vlcsnap-2017-05-24-16h07m00s156.th.png[/img][/url] [url=https://www.jiopic.com/image/Xzk3e][img]https://www.jiopic.com/images/2017/05/25/vlcsnap-2017-05-24-16h07m07s964.th.png[/img][/url] [url=https://www.jiopic.com/image/XZFdo][img]https://www.jiopic.com/images/2017/05/25/vlcsnap-2017-05-24-16h07m20s200.th.png[/img][/url] [url=https://www.jiopic.com/image/XZwzI][img]https://www.jiopic.com/images/2017/05/25/vlcsnap-2017-05-24-16h07m30s327.th.png[/img][/url] [url=https://www.jiopic.com/image/Xz2JE][img]https://www.jiopic.com/images/2017/05/25/vlcsnap-2017-05-24-16h07m53s828.th.png[/img][/url] [url=https://www.jiopic.com/image/XzX6S][img]https://www.jiopic.com/images/2017/05/25/vlcsnap-2017-05-24-16h08m02s015.th.png[/img][/url] [url=https://www.jiopic.com/image/XzSK7][img]https://www.jiopic.com/images/2017/05/25/vlcsnap-2017-05-24-16h08m08s990.th.png[/img][/url] [url=https://www.jiopic.com/image/Xz3Vi][img]https://www.jiopic.com/images/2017/05/25/vlcsnap-2017-05-24-16h09m00s940.th.png[/img][/url] [url=https://www.jiopic.com/image/XzxdF][img]https://www.jiopic.com/images/2017/05/25/vlcsnap-2017-05-24-16h09m10s890.th.png[/img][/url] [url=https://www.jiopic.com/image/XzsY4][img]https://www.jiopic.com/images/2017/05/25/vlcsnap-2017-05-24-16h09m25s440.th.png[/img][/url][/center] ]]>
Penthouse 16 06 05 Alexis Ford in Old Flame New Flame XXX XviD SD http://glodls.to/torrent.php?id=2529721 http://glodls.to/torrent.php?id=2529721 Wed, 24 May 2017 21:18:08 +0100 Adult XXX
[b]Screenshots:[/b]

[url]http://imgking.co/imgs-5925f892df089.html[/url]

[url]http://imgking.co/imgs-5925f892da827.html[/url]

[url]http://imgking.co/imgs-5925f892d61a8.html[/url]

[url]http://imgking.co/imgs-5925f88a5f243.html[/url] ]]>
Penthouse 16 06 05 Charisma Cappelli in Female Problems XXX 480p MP4-TK http://glodls.to/torrent.php?id=2529720 http://glodls.to/torrent.php?id=2529720 Wed, 24 May 2017 21:18:07 +0100 Adult XXX
[b]Screenshots:[/b]

[url]http://imgking.co/imgs-5925f8919a02a.html[/url]

[url]http://imgking.co/imgs-5925f89192f65.html[/url]

[url]http://imgking.co/imgs-5925f8918c282.html[/url]

[url]http://imgking.co/imgs-5925f88d7cdff.html[/url]

File Size : 168 MiB
Duration : 20mn 18s
Video : h264, yuv420p, 854x480p, 1024 Kbps
Audio : aac , 2 ch, stereo , 128 Kbps ]]>
Cherry Crush - Yoga Pants Anal http://glodls.to/torrent.php?id=2529719 http://glodls.to/torrent.php?id=2529719 Wed, 24 May 2017 21:12:45 +0100 Adult XXX
[b]Date[/b]: 2017
[b]Cast[/b]: Cherry Crush
[b]Genre[/b]: Teen, All sex, Oral, Anal
[b]Name[/b]: Yoga Pants Anal


[b]Video[/b]: AVC, 1920x1080, 23.976 FPS, 4118 kb/s
[b]Audio[/b]: AAC LC, 48.0 kHz, 2 channels, 317 kb/s
[b]Format[/b]: mp4
[b]Duration[/b]: 00:22:38
]]>
Cherry Crush - Kitty Girls http://glodls.to/torrent.php?id=2529718 http://glodls.to/torrent.php?id=2529718 Wed, 24 May 2017 21:09:30 +0100 Adult XXX
[b]Date[/b]: 2017
[b]Cast[/b]: Cherry Crush
[b]Genre[/b]: Teen, Lesbo
[b]Name[/b]: Kitty Girls


[b]Video[/b]: AVC, 1920x1080, 23.976 FPS, 4388 kb/s
[b]Audio[/b]: AAC LC, 48.0 kHz, 2 channels, 192 kb/s
[b]Format[/b]: mp4
[b]Duration[/b]: 00:08:22
]]>
The Art of Conducting Great Conductors of the Past x264 AC3 mkv http://glodls.to/torrent.php?id=2529674 http://glodls.to/torrent.php?id=2529674 Wed, 24 May 2017 21:00:01 +0100 TV http://www.tvrage.com/schedule.php?show_yesterday=1. ]]> Req.. Custom Karaoke, SBI Avenged Sevenfold "Carry On" @128, from BJtheDJ http://glodls.to/torrent.php?id=2529673 http://glodls.to/torrent.php?id=2529673 Wed, 24 May 2017 20:56:34 +0100 Music
[u]Avenged Sevenfold "Carry On" [/u][/b] ]]>
The.Grasshopper.and.The.Ants.1934.BDRip.x264-FLAME[PRiME] http://glodls.to/torrent.php?id=2529672 http://glodls.to/torrent.php?id=2529672 Wed, 24 May 2017 20:55:48 +0100 Movies The.Grasshopper.and.The.Ants.1934.BDRip.x264-FLAME[PRiME]

ImDb: [URL]http://www.imdb.com/title/tt0025200[/URL]

[url=https://www.sparrowpics.com/image/LwB][img]https://www.sparrowpics.com/images/2015/12/10/Info.png[/img][/url]

[color=green]Complete name : flame-the.grasshopper.and.the.ants.1934.bdrip.x264[PRiME].mkv
Format : Matroska
Format version : Version 4 / Version 2
File size : 116 MiB
Duration : 8 min 28 s
Overall bit rate : 1 915 kb/s
Encoded date : UTC 2017-05-24 18:33:41
Writing application : mkvmerge v12.0.0 ('Trust / Lust') 64bit
Writing library : libebml v1.3.4 + libmatroska v1.4.5

Video
ID : 1
Format : AVC
Format/Info : Advanced Video Codec
Format profile : High@L3.1
Format settings, CABAC : Yes
Format settings, ReFrames : 8 frames
Codec ID : V_MPEG4/ISO/AVC
Duration : 8 min 28 s
Bit rate : 1 794 kb/s
Width : 720 pixels
Height : 540 pixels
Display aspect ratio : 4:3
Frame rate mode : Constant
Frame rate : 23.976 (24000/1001) FPS
Color space : YUV
Chroma subsampling : 4:2:0
Bit depth : 8 bits
Scan type : Progressive
Bits/(Pixel*Frame) : 0.192
Stream size : 109 MiB (94%)
Writing library : x264 core 150 r2833 df79067
Encoding settings : cabac=1 / ref=8 / deblock=1:0:0 / analyse=0x3:0x133 / me=umh / subme=9 / psy=1 / psy_rd=1.00:0.00 / mixed_ref=1 / me_range=16 / chroma_me=1 / trellis=2 / 8x8dct=1 / cqm=0 / deadzone=21,11 / fast_pskip=0 / chroma_qp_offset=-2 / threads=12 / lookahead_threads=1 / sliced_threads=0 / nr=0 / decimate=1 / interlaced=0 / bluray_compat=0 / constrained_intra=0 / bframes=3 / b_pyramid=2 / b_adapt=2 / b_bias=0 / direct=3 / weightb=1 / open_gop=0 / weightp=2 / keyint=250 / keyint_min=23 / scenecut=40 / intra_refresh=0 / rc_lookahead=60 / rc=crf / mbtree=1 / crf=23.0 / qcomp=0.60 / qpmin=0 / qpmax=69 / qpstep=4 / ip_ratio=1.40 / aq=1:1.00
Language : English
Default : Yes
Forced : No
Color range : Limited
Matrix coefficients : BT.709

Audio
ID : 2
Format : AAC
Format/Info : Advanced Audio Codec
Format profile : LC
Codec ID : A_AAC
Duration : 8 min 28 s
Bit rate : 118 kb/s
Channel(s) : 2 channels
Channel positions : Front: L R
Sampling rate : 48.0 kHz
Frame rate : 46.875 FPS (1024 spf)
Compression mode : Lossy
Delay relative to video : 9 ms
Stream size : 7.18 MiB (6%)
Title : English AAC-LC 118 kbps
Language : English
Default : Yes
Forced : No

Text
ID : 3
Format : UTF-8
Codec ID : S_TEXT/UTF8
Codec ID/Info : UTF-8 Plain Text
Duration : 7 min 50 s
Bit rate : 14 b/s
Count of elements : 33
Stream size : 851 Bytes (0%)
Language : Polish
Default : No
Forced : No[/color]

[url=https://www.sparrowpics.com/image/UYe][img]https://www.sparrowpics.com/images/2015/12/10/Screens.png[/img][/url]

[color=red]Click Image To View Full Size[/color]

[URL=https://www.sparrowpics.com/image/7kV11][IMG]https://www.sparrowpics.com/images/2017/05/25/7kV11.th.jpg[/IMG][/URL]
[URL=https://www.sparrowpics.com/image/7kjTH][b]Click To View Screenshot[/b][/URL]
[URL=https://www.sparrowpics.com/image/7knlT][b]Click To View Screenshot[/b][/URL]
[URL=https://www.sparrowpics.com/image/7k7wB][b]Click To View Screenshot[/b][/URL]

[/center] ]]>
The.Grasshopper.and.The.Ants.1934.720p.BluRay.x264-FLAME[PRiME] http://glodls.to/torrent.php?id=2529671 http://glodls.to/torrent.php?id=2529671 Wed, 24 May 2017 20:55:43 +0100 Movies The.Grasshopper.and.The.Ants.1934.720p.BluRay.x264-FLAME[PRiME]

ImDb: [URL]http://www.imdb.com/title/tt0025200[/URL]

[url=https://www.sparrowpics.com/image/LwB][img]https://www.sparrowpics.com/images/2015/12/10/Info.png[/img][/url]

[color=green]Complete name : flame-the.grasshopper.and.the.ants.1934.720p.bluray.x264[PRiME].mkv
Format : Matroska
Format version : Version 4 / Version 2
File size : 314 MiB
Duration : 8 min 28 s
Overall bit rate : 5 192 kb/s
Encoded date : UTC 2017-05-24 18:30:27
Writing application : mkvmerge v12.0.0 ('Trust / Lust') 64bit
Writing library : libebml v1.3.4 + libmatroska v1.4.5

Video
ID : 1
Format : AVC
Format/Info : Advanced Video Codec
Format profile : High@L4.1
Format settings, CABAC : Yes
Format settings, ReFrames : 8 frames
Codec ID : V_MPEG4/ISO/AVC
Duration : 8 min 28 s
Bit rate : 5 000 kb/s
Width : 960 pixels
Height : 720 pixels
Display aspect ratio : 4:3
Frame rate mode : Constant
Frame rate : 23.976 (24000/1001) FPS
Color space : YUV
Chroma subsampling : 4:2:0
Bit depth : 8 bits
Scan type : Progressive
Bits/(Pixel*Frame) : 0.302
Stream size : 303 MiB (96%)
Writing library : x264 core 150 r2833 df79067
Encoding settings : cabac=1 / ref=8 / deblock=1:2:1 / analyse=0x3:0x133 / me=umh / subme=9 / psy=1 / psy_rd=0.50:0.00 / mixed_ref=1 / me_range=16 / chroma_me=1 / trellis=2 / 8x8dct=1 / cqm=0 / deadzone=21,11 / fast_pskip=0 / chroma_qp_offset=-2 / threads=12 / lookahead_threads=1 / sliced_threads=0 / nr=0 / decimate=1 / interlaced=0 / bluray_compat=0 / constrained_intra=0 / bframes=3 / b_pyramid=2 / b_adapt=2 / b_bias=0 / direct=3 / weightb=1 / open_gop=0 / weightp=2 / keyint=250 / keyint_min=23 / scenecut=40 / intra_refresh=0 / rc_lookahead=60 / rc=2pass / mbtree=1 / bitrate=5000 / ratetol=1.0 / qcomp=0.60 / qpmin=10 / qpmax=69 / qpstep=4 / cplxblur=20.0 / qblur=0.5 / ip_ratio=1.40 / aq=1:0.70
Language : English
Default : Yes
Forced : No

Audio
ID : 2
Format : AC-3
Format/Info : Audio Coding 3
Mode extension : CM (complete main)
Format settings, Endianness : Big
Codec ID : A_AC3
Duration : 8 min 28 s
Bit rate mode : Constant
Bit rate : 192 kb/s
Channel(s) : 2 channels
Channel positions : Front: L R
Sampling rate : 48.0 kHz
Frame rate : 31.250 FPS (1536 spf)
Compression mode : Lossy
Stream size : 11.6 MiB (4%)
Title : English AC3 192 kbps
Language : English
Default : Yes
Forced : No

Text
ID : 3
Format : UTF-8
Codec ID : S_TEXT/UTF8
Codec ID/Info : UTF-8 Plain Text
Duration : 7 min 50 s
Bit rate : 14 b/s
Count of elements : 33
Stream size : 851 Bytes (0%)
Language : Polish
Default : No
Forced : No[/color]

[url=https://www.sparrowpics.com/image/UYe][img]https://www.sparrowpics.com/images/2015/12/10/Screens.png[/img][/url]

[color=red]Click Image To View Full Size[/color]

[URL=https://www.sparrowpics.com/image/7ktkX][IMG]https://www.sparrowpics.com/images/2017/05/25/7ktkX.th.jpg[/IMG][/URL]
[URL=https://www.sparrowpics.com/image/7kHWM][b]Click To View Screenshot[/b][/URL]
[URL=https://www.sparrowpics.com/image/7kGyV][b]Click To View Screenshot[/b][/URL]
[URL=https://www.sparrowpics.com/image/7kcDd][b]Click To View Screenshot[/b][/URL]

[/center] ]]>
The.Grasshopper.and.The.Ants.1934.1080p.BluRay.x264-FLAME[PRiME] http://glodls.to/torrent.php?id=2529670 http://glodls.to/torrent.php?id=2529670 Wed, 24 May 2017 20:55:38 +0100 Movies The.Grasshopper.and.The.Ants.1934.1080p.BluRay.x264-FLAME[PRiME]

ImDb: [URL]http://www.imdb.com/title/tt0025200[/URL]

[url=https://www.sparrowpics.com/image/LwB][img]https://www.sparrowpics.com/images/2015/12/10/Info.png[/img][/url]

[color=green]Complete name : flame-the.grasshopper.and.the.ants.1934.1080p.bluray.x264[PRiME].mkv
Format : Matroska
Format version : Version 4 / Version 2
File size : 559 MiB
Duration : 8 min 28 s
Overall bit rate : 9 231 kb/s
Encoded date : UTC 2017-05-24 18:32:22
Writing application : mkvmerge v12.0.0 ('Trust / Lust') 64bit
Writing library : libebml v1.3.4 + libmatroska v1.4.5

Video
ID : 1
Format : AVC
Format/Info : Advanced Video Codec
Format profile : High@L4.1
Format settings, CABAC : Yes
Format settings, ReFrames : 5 frames
Codec ID : V_MPEG4/ISO/AVC
Duration : 8 min 28 s
Bit rate : 9 046 kb/s
Width : 1 440 pixels
Height : 1 080 pixels
Display aspect ratio : 4:3
Frame rate mode : Constant
Frame rate : 23.976 (24000/1001) FPS
Color space : YUV
Chroma subsampling : 4:2:0
Bit depth : 8 bits
Scan type : Progressive
Bits/(Pixel*Frame) : 0.243
Stream size : 547 MiB (98%)
Writing library : x264 core 150 r2833 df79067
Encoding settings : cabac=1 / ref=5 / deblock=1:2:1 / analyse=0x3:0x133 / me=umh / subme=9 / psy=1 / psy_rd=0.50:0.00 / mixed_ref=1 / me_range=16 / chroma_me=1 / trellis=2 / 8x8dct=1 / cqm=0 / deadzone=21,11 / fast_pskip=0 / chroma_qp_offset=-2 / threads=12 / lookahead_threads=1 / sliced_threads=0 / nr=0 / decimate=1 / interlaced=0 / bluray_compat=0 / constrained_intra=0 / bframes=3 / b_pyramid=2 / b_adapt=2 / b_bias=0 / direct=3 / weightb=1 / open_gop=0 / weightp=2 / keyint=250 / keyint_min=23 / scenecut=40 / intra_refresh=0 / rc_lookahead=60 / rc=2pass / mbtree=1 / bitrate=9046 / ratetol=1.0 / qcomp=0.60 / qpmin=10 / qpmax=69 / qpstep=4 / cplxblur=20.0 / qblur=0.5 / ip_ratio=1.40 / aq=1:0.70
Language : English
Default : Yes
Forced : No

Audio
ID : 2
Format : AC-3
Format/Info : Audio Coding 3
Mode extension : CM (complete main)
Format settings, Endianness : Big
Codec ID : A_AC3
Duration : 8 min 28 s
Bit rate mode : Constant
Bit rate : 192 kb/s
Channel(s) : 2 channels
Channel positions : Front: L R
Sampling rate : 48.0 kHz
Frame rate : 31.250 FPS (1536 spf)
Compression mode : Lossy
Stream size : 11.6 MiB (2%)
Title : English AC3 192 kbps
Language : English
Default : Yes
Forced : No

Text
ID : 3
Format : UTF-8
Codec ID : S_TEXT/UTF8
Codec ID/Info : UTF-8 Plain Text
Duration : 7 min 50 s
Bit rate : 14 b/s
Count of elements : 33
Stream size : 851 Bytes (0%)
Language : Polish
Default : No
Forced : No[/color]

[url=https://www.sparrowpics.com/image/UYe][img]https://www.sparrowpics.com/images/2015/12/10/Screens.png[/img][/url]

[color=red]Click Image To View Full Size[/color]

[URL=https://www.sparrowpics.com/image/7kEe9][IMG]https://www.sparrowpics.com/images/2017/05/25/7kEe9.th.jpg[/IMG][/URL]
[URL=https://www.sparrowpics.com/image/7kNwb][b]Click To View Screenshot[/b][/URL]
[URL=https://www.sparrowpics.com/image/7keY3][b]Click To View Screenshot[/b][/URL]
[URL=https://www.sparrowpics.com/image/7klbK][b]Click To View Screenshot[/b][/URL]

[/center] ]]>
Cherry Crush - Doneza Bella Dildo http://glodls.to/torrent.php?id=2529669 http://glodls.to/torrent.php?id=2529669 Wed, 24 May 2017 20:54:29 +0100 Adult XXX
[b]Date[/b]: 2017
[b]Cast[/b]: Cherry Crush
[b]Genre[/b]: Teen, Lesbo
[b]Name[/b]: Doneza Bella Dildo


[b]Video[/b]: AVC, 1920x1080, 23.976 FPS, 7085 kb/s
[b]Audio[/b]: AAC LC, 48.0 kHz, 2 channels, 317 kb/s
[b]Format[/b]: mp4
[b]Duration[/b]: 00:12:24
]]>
Penthouse 16 06 05 Charisma Cappelli in Female Problems XXX XviD SD http://glodls.to/torrent.php?id=2529668 http://glodls.to/torrent.php?id=2529668 Wed, 24 May 2017 20:54:14 +0100 Adult XXX
[b]Screenshots:[/b]

[url]http://imgking.co/imgs-5925f2f842ec0.html[/url]

[url]http://imgking.co/imgs-5925f2f83e96d.html[/url]

[url]http://imgking.co/imgs-5925f2f839f9a.html[/url]

[url]http://imgking.co/imgs-5925f2f428437.html[/url] ]]>
The Invisible Man vs The Human Fly [1957 - Japan] sci fi http://glodls.to/torrent.php?id=2529667 http://glodls.to/torrent.php?id=2529667 Wed, 24 May 2017 20:53:48 +0100 Movies [b]The Invisible Man vs. The Human Fly [1957 - Japan] Tômei ningen to hae otoko[/b]

Crime / Fantasy / Science Fiction

[url=http://www.imdb.com/title/tt0204691/]http://www.imdb.com/title/tt0204691/[/url]

Tokyo is gripped with a series of murders committed by an unseen madman. The only apparent warning
sign is a buzzing sound preceding the attack. The police are baffled. One officer quips that
the murders could only be committed by an invisible man. Little does he, or the others,
realise that through light ray technology, such a being has already been created.

Video: MPEG4 Video (H264), 720x540, 23.976 fps, 1774 Kbps, 01h35m57s
Audio: Dolby AC3, 48000 Hz, stereo, 192 kbps

[b]DVDRip, Japanese audio, optional subtitles English, Russian, Spanish[/b]

[img]https://extraimage.net/images/2017/05/20/fbefdafe589839f5c02cf5139e6bb3f9.jpg[/img]
[img]https://extraimage.net/images/2017/05/20/4565a9c4968ae4d4ef9c861b4d213898.jpg[/img] ]]>
White Trash - Kanakerbraut [1983 - West Germany] Kreuzberg drama http://glodls.to/torrent.php?id=2529666 http://glodls.to/torrent.php?id=2529666 Wed, 24 May 2017 20:51:57 +0100 Movies [b]White Trash [1983 - West Germany] Kanakerbraut[/b]

Drama

[url=http://www.imdb.com/title/tt0087533/]http://www.imdb.com/title/tt0087533/[/url]

Chicago International Film Festival - Nominated - Best Feature

His wife has left him and he lives alone in a shabby dwelling. Forty-year-old Paul works part-time at odd jobs and spends the rest of
his hours in dingy bars and visiting peep-shows. An authentic portrait in regard to the locations and language of Berlin Kreuzberg.

Video: XviD, 640x384, 25.000 fps, 1636 Kbps, 00h56m13s
Audio: MP3, 44100 Hz, stereo, 112 kbps

[b]DVDRip, German audio, optional subtitles English and Spanish[/b]

[img]https://extraimage.net/images/2017/05/20/02202b41f37174761bb8c575e175665b.jpg[/img]
[img]https://extraimage.net/images/2017/05/20/95189cc1c3d9e7f0f0198c3a3c8b91e5.jpg[/img] ]]>
The.Grasshopper.and.The.Ants.1934.BDRip.x264-FLAME http://glodls.to/torrent.php?id=2529665 http://glodls.to/torrent.php?id=2529665 Wed, 24 May 2017 20:51:12 +0100 Movies [color=red][b]
The.Grasshopper.and.The.Ants.1934.BDRip.x264-FLAME

[/b][/color]


IMDb: http://www.imdb.com/title/tt0025200/





[url=https://boltimg.com/image/t52z][img]https://boltimg.com/images/t52z.png[/img][/url]



[color=green][b]
General

(Duration): 8mn 28s
(FileSize): 116 MiB



Audio

(Format): AAC - Advanced Audio Codec
(Codec): AAC LC



Video

(Format): AVC - Advanced Video Codec
(Media): video/H264
(Format): x264
(Resolution): 720x540 px
(AspectRatio): 4:3
(FrameRate): 23.976 fps




[/b][/color]


[url=https://boltimg.com/image/tzTE][img]https://boltimg.com/images/tzTE.png[/img][/url]



[color=purple][b](Click to enlarge)[/b][/color]

[url=https://boltimg.com/image/MK2iZ][img]https://boltimg.com/images/MK2iZ.th.jpg[/img][/url] [url=https://boltimg.com/image/MKA9l][img]https://boltimg.com/images/MKA9l.th.jpg[/img][/url] [url=https://boltimg.com/image/MKbbP][img]https://boltimg.com/images/MKbbP.th.jpg[/img][/url] [url=https://boltimg.com/image/MKo7e][img]https://boltimg.com/images/MKo7e.th.jpg[/img][/url] [url=https://boltimg.com/image/MKujc][img]https://boltimg.com/images/MKujc.th.jpg[/img][/url] [url=https://boltimg.com/image/MKCIu][img]https://boltimg.com/images/MKCIu.th.jpg[/img][/url]

[/center]
]]>
Lullaby of Broadway [1951 - USA] Doris Day comedy http://glodls.to/torrent.php?id=2529664 http://glodls.to/torrent.php?id=2529664 Wed, 24 May 2017 20:50:26 +0100 Movies [b]Lullaby of Broadway [1951 - USA][/b]

Comedy / Musical / Romance

starring . . . . Doris Day, Gene Nelson, S.Z. Sakall

[url=http://www.imdb.com/title/tt0043762/]http://www.imdb.com/title/tt0043762/[/url]

Photoplay Awards - Won - Most Popular Female Star

Pretty Melinda Howard has been abroad singing with a musical troupe. She decides to return home to surprise her
mother whom she thinks is a successful Broadway star with a mansion in Manhattan. In reality though, life
is not so rosy for the burnt-out cabaret singer. Doris Day's 10-inch Columbia LP of selections
from the film score captured first place on the Billboard pop albums chart.

Video: XviD, 704x528, 23.976 fps, 1918 Kbps, 01h32m19s
Audio: Dolby AC3, 48000 Hz, stereo, 192 kbps

[b]DVDRip, DUAL Audio Tracks English and Spanish[/b]

[b]Optional subtitles Croatian, English, French, Portuguese, Spanish[/b]

[img]https://extraimage.net/images/2017/05/20/8aa3583147f9ef20240babf34fd35e07.jpg[/img]
[img]https://extraimage.net/images/2017/05/20/1ad85e7b440b3e52d16f96336a109344.jpg[/img] ]]>
Captain Pirate [1952 - USA] Technicolor adventure http://glodls.to/torrent.php?id=2529663 http://glodls.to/torrent.php?id=2529663 Wed, 24 May 2017 20:48:33 +0100 Movies [b]Captain Pirate [1952 - USA][/b]

Action / Adventure / Drama

starring . . . . Louis Hayward, Patricia Medina, John Sutton

[url=http://www.imdb.com/title/tt0044475/]http://www.imdb.com/title/tt0044475/[/url]

The legendary swashbuckler Peter Blood must emerge from a comfy retirement in the West Indies when
an evil pirate masquerading as him starts menacing the high seas. Reuniting his old crew,
Captain Blood sets out to track down the scoundrel who has stolen his good name.

Video: MPEG4 Video (H264), 656x480, 23.976 fps, 2326 Kbps, 01h25m08s
Audio: Dolby AC3, 48000 Hz, stereo, 192 kbps

[b]DVDRip, DUAL Audio Tracks English and Spanish[/b]

[b]Optional subtitles Czech, English, Greek, Hungarian, Portuguese, Romanian, Russian, Spanish[/b]

[img]https://extraimage.net/images/2017/05/20/2e4e9ea1fad99fa67c142fbfebbf1c90.jpg[/img]
[img]https://extraimage.net/images/2017/05/20/6b08c98699c1e03bfad44dca6ca1dabf.jpg[/img] ]]>
Touch and Go [1955 - UK] Jack Hawkins comedy http://glodls.to/torrent.php?id=2529662 http://glodls.to/torrent.php?id=2529662 Wed, 24 May 2017 20:46:35 +0100 Movies [b]Touch and Go [1955 - UK][/b]

Comedy

starring . . . . Jack Hawkins, Margaret Johnston, June Thorburn

[url=http://www.imdb.com/title/tt0048740/]http://www.imdb.com/title/tt0048740/[/url]

BAFTA Film Awards - Nominated - Best British Screenplay

An amusing Ealing portrait of an idiotic father and his much more sensible wife and daughter. Following
an argument with a work superior, furniture designer Jim Fletcher quits his job in a fit of pique. He
decides that England has nothing to offer him and that the future for his family lies in Australia.

Video: XviD, 608x464, 25.000 fps, 2171 Kbps, 01h21m30s
Audio: Dolby AC3, 48000 Hz, stereo, 224 kbps

[b]DVDRip, English audio, optional Spanish subtitles[/b]

[img]https://extraimage.net/images/2017/05/20/0a4c4922e8e09c374b5a48a8ba01a618.jpg[/img]
[img]https://extraimage.net/images/2017/05/20/1c19607f56166e449b03b5a5a124ac81.jpg[/img] ]]>
Cherry Crush - Cams Howza Bella http://glodls.to/torrent.php?id=2529661 http://glodls.to/torrent.php?id=2529661 Wed, 24 May 2017 20:45:35 +0100 Adult XXX
[b]Date[/b]: 2017
[b]Cast[/b]: Cherry Crush
[b]Genre[/b]: Teen, Anal, Solo
[b]Name[/b]: Cams Howza Bella


[b]Video[/b]: AVC, 1920x1080, 23.976 FPS, 7007 kb/s
[b]Audio[/b]: AAC LC, 48.0 kHz, 2 channels, 317 kb/s
[b]Format[/b]: mp4
[b]Duration[/b]: 00:15:03
]]>
Love Letters [1945 - USA] Jennifer Jones and Joseph Cotten http://glodls.to/torrent.php?id=2529660 http://glodls.to/torrent.php?id=2529660 Wed, 24 May 2017 20:42:46 +0100 Movies [b]Love Letters [1945 - USA][/b]

Drama / Mystery / Romance

starring . . . . Jennifer Jones, Joseph Cotten, Ann Richards

[url=http://www.imdb.com/title/tt0037885/]http://www.imdb.com/title/tt0037885/[/url]

Nominated for 4 Academy Awards

When a soldier with a romantic outlook ghostwrites love letters for an ineloquent acquaintance, he unwittingly sets in motion
a destructive chain of events. At first glance the film appears to be a glossy, run-of-the-mill wartime love story.
Actually, it is a mesmerising, perplexing, layered work that defies genre categorisation. The love story is
definitely there, but the film also has elements of noir, straight up mystery and courtroom drama.

Video: DivX5, 704x528, 25.000 fps, 1947 Kbps, 01h36m57s
Audio: Dolby AC3, 48000 Hz, stereo, 192 kbps

[b]DVDRip, DUAL Audio Tracks English and Spanish[/b]

[b]Optional subtitles English, French, Portuguese, Spanish[/b]

[img]https://extraimage.net/images/2017/05/20/3eff8d5f3db03eabeb79cb2376dbb20a.jpg[/img]
[img]https://extraimage.net/images/2017/05/20/4cc8910aa32175eebf4c725409ba9253.jpg[/img] ]]>
Cherry Crush - Black Nylons http://glodls.to/torrent.php?id=2529659 http://glodls.to/torrent.php?id=2529659 Wed, 24 May 2017 20:42:40 +0100 Adult XXX
[b]Date[/b]: 2017
[b]Cast[/b]: Cherry Crush
[b]Genre[/b]: Teen, All sex, Oral
[b]Name[/b]: Black Nylons


[b]Video[/b]: AVC, 1920x1080, 23.976 FPS, 3795 kb/s
[b]Audio[/b]: AAC LC, 48.0 kHz, 2 channels, 317 kb/s
[b]Format[/b]: mp4
[b]Duration[/b]: 00:23:47
]]>
Cherry Crush - Brunet Tetease 2 http://glodls.to/torrent.php?id=2529658 http://glodls.to/torrent.php?id=2529658 Wed, 24 May 2017 20:36:24 +0100 Adult XXX
[b]Date[/b]: 2017
[b]Cast[/b]: Cherry Crush
[b]Genre[/b]: Teen, All sex, Oral
[b]Name[/b]: Brunet Tetease 2


[b]Video[/b]: AVC, 1280x720, 23.976 FPS, 3226 kb/s
[b]Audio[/b]: AAC LC, 48.0 kHz, 2 channels, 157 kb/s
[b]Format[/b]: mp4
[b]Duration[/b]: 00:14:21
]]>
TeenFidelity - The Music Box 4 - Ivy Wolfe aka Emma Scarlett [1080p] mp4 http://glodls.to/torrent.php?id=2529657 http://glodls.to/torrent.php?id=2529657 Wed, 24 May 2017 20:27:29 +0100 Adult XXX
2.62 GB

Screens

[url]http://img.img-central.com/image/wRTGh[/url]
[url]http://img.img-central.com/image/wRl0g[/url]
[url]http://img.img-central.com/image/wR5mw[/url]
[url]http://img.img-central.com/image/wRCqu[/url]

[img]https://s14.postimg.org/ozh3inpsh/Teen_Fidelity_1.jpg[/img]
]]>
Cherry Crush - Aliens Girls http://glodls.to/torrent.php?id=2529656 http://glodls.to/torrent.php?id=2529656 Wed, 24 May 2017 20:24:24 +0100 Adult XXX
[b]Date[/b]: 2017
[b]Cast[/b]: Cherry Crush
[b]Genre[/b]: Teen, Lesbo
[b]Name[/b]: Aliens Girls


[b]Video[/b]: AVC, 1920x1080, 23.976 FPS, 4412 kb/s
[b]Audio[/b]: AAC LC, 48.0 kHz, 2 channels, 317 kb/s
[b]Format[/b]: mp4
[b]Duration[/b]: 00:10:14
]]>
WatchingMyMomGoBlack - Maggie Green [1080p] mp4 http://glodls.to/torrent.php?id=2529655 http://glodls.to/torrent.php?id=2529655 Wed, 24 May 2017 20:24:07 +0100 Adult XXX
1.99 GB

Screens

[url]http://img.img-central.com/image/wRP7l[/url]
[url]http://img.img-central.com/image/wRzXZ[/url]
[url]http://img.img-central.com/image/wR9cL[/url]
[url]http://img.img-central.com/image/wRBu9[/url]

[img]https://s23.postimg.org/wzgk0fsyz/Watching_My_Mom_Go_Black_1.jpg[/img] ]]>
SisLovesMe - Violet Starr [1080p] mp4 http://glodls.to/torrent.php?id=2529654 http://glodls.to/torrent.php?id=2529654 Wed, 24 May 2017 20:18:03 +0100 Adult XXX
3.99 GB

Screens

[url]http://img.img-central.com/image/wRGQm[/url]
[url]http://img.img-central.com/image/wRNqe[/url]
[url]http://img.img-central.com/image/wRflq[/url]
[url]http://img.img-central.com/image/wRwOE[/url]

[img]https://s14.postimg.org/sduol1vtd/Sis_Loves_Me_1.jpg[/img] ]]>