GloDLS.to - Download Movies, TV, Games and Other Torrents Free RSS 2.0enGloDLS.to - Download Movies, TV, Games and Other Torrents FreeGloDLS.to - Download Movies, TV, Games and Other Torrents Free RSS Feedhttp://glodls.toCopyright GloDLS.to - Download Movies, TV, Games and Other Torrents FreeFri, 20 Jan 2017 03:38:21 +0000 Baskets.S02E01.720p.HDTV.x264-FLEET[PRiME] http://glodls.to/torrent.php?id=2162004 http://glodls.to/torrent.php?id=2162004 Fri, 20 Jan 2017 03:37:09 +0000 TV Baskets.S02E01.720p.HDTV.x264-FLEET[PRiME]

[url=https://www.sparrowpics.com/image/LwB][img]https://www.sparrowpics.com/images/2015/12/10/Info.png[/img][/url]

[color=green]Complete name : Baskets.S02E01.720p.HDTV.x264-FLEET[PRiME].mkv
Format : Matroska
Format version : Version 2
File size : 652 MiB
Duration : 22 min 55 s
Overall bit rate : 3 978 kb/s
Writing application : x264.exe
Writing library : mkv2rls x264-tv version built on 2016.10.12

Video
ID : 1
Format : AVC
Format/Info : Advanced Video Codec
Format profile : High@L4.1
Format settings, CABAC : Yes
Format settings, ReFrames : 5 frames
Codec ID : V_MPEG4/ISO/AVC
Duration : 22 min 55 s
Bit rate : 3 514 kb/s
Width : 1 280 pixels
Height : 718 pixels
Display aspect ratio : 16:9
Frame rate mode : Constant
Frame rate : 23.976 (24000/1001) FPS
Color space : YUV
Chroma subsampling : 4:2:0
Bit depth : 8 bits
Scan type : Progressive
Bits/(Pixel*Frame) : 0.159
Stream size : 576 MiB (88%)
Writing library : x264 core 148 r2744 b97ae06
Encoding settings : cabac=1 / ref=5 / deblock=1:-2:-2 / analyse=0x3:0x113 / me=hex / subme=8 / psy=1 / psy_rd=1.05:0.00 / mixed_ref=1 / me_range=16 / chroma_me=1 / trellis=2 / 8x8dct=1 / cqm=0 / deadzone=21,11 / fast_pskip=1 / chroma_qp_offset=-2 / threads=18 / lookahead_threads=3 / sliced_threads=0 / nr=0 / decimate=1 / interlaced=0 / bluray_compat=0 / constrained_intra=0 / bframes=3 / b_pyramid=2 / b_adapt=1 / b_bias=0 / direct=3 / weightb=1 / open_gop=0 / weightp=2 / keyint=250 / keyint_min=23 / scenecut=40 / intra_refresh=0 / rc_lookahead=50 / rc=crf / mbtree=1 / crf=18.0 / qcomp=0.60 / qpmin=0 / qpmax=69 / qpstep=4 / ip_ratio=1.40 / aq=1:0.70
Language : English
Default : Yes
Forced : No

Audio
ID : 2
Format : AC-3
Format/Info : Audio Coding 3
Mode extension : CM (complete main)
Format settings, Endianness : Big
Codec ID : A_AC3
Duration : 22 min 55 s
Bit rate mode : Constant
Bit rate : 384 kb/s
Channel(s) : 6 channels
Channel positions : Front: L C R, Side: L R, LFE
Sampling rate : 48.0 kHz
Frame rate : 31.250 FPS (1536 spf)
Compression mode : Lossy
Stream size : 62.9 MiB (10%)
Language : English
Default : Yes
Forced : No

Text
ID : 3
Format : UTF-8
Codec ID : S_TEXT/UTF8
Codec ID/Info : UTF-8 Plain Text
Title : English
Language : English
Default : No
Forced : No[/color]

[url=https://www.sparrowpics.com/image/UYe][img]https://www.sparrowpics.com/images/2015/12/10/Screens.png[/img][/url]

[color=red]Click Image To View Full Size[/color]

[URL=https://www.sparrowpics.com/image/l4M5H][IMG]https://www.sparrowpics.com/images/2017/01/20/l4M5H.th.jpg[/IMG][/URL]
[URL=https://www.sparrowpics.com/image/l4UvT][b]Click To View Screenshot[/b][/URL]
[URL=https://www.sparrowpics.com/image/l4ggB][b]Click To View Screenshot[/b][/URL]
[URL=https://www.sparrowpics.com/image/l43Xe][b]Click To View Screenshot[/b][/URL]

[/center] ]]>
Adda Sultan Ka (2013) HDRip x265 480p HiNdi Dubbed - 786zx http://glodls.to/torrent.php?id=2162003 http://glodls.to/torrent.php?id=2162003 Fri, 20 Jan 2017 03:25:05 +0000 Movies
http://www.imdb.com/title/tt2797672/

[color=#FF0000][size=5][b]Adda Sultan Ka (2013)..HDRip..x265..480p..HiNdi Dubbed - 786zx[/b][/size][/color]

[size=5][b][color=#FF0000]Screenshots:[/color][/b][/size]

[url=http://786zx.com/c/view_item.php?item=7UN8Y29NXH75&type=photos&collection=10][b]Screenshot 1[/b][/url]

[url=http://786zx.com/c/view_item.php?item=49MOU73O924A&type=photos&collection=10][b]Screenshot 2[/b][/url]

[url=http://786zx.com/c/view_item.php?item=5O5MMO9R3R26&type=photos&collection=10][b]Screenshot 3[/b][/url]

[url=http://786zx.com/c/view_item.php?item=M3KKK4GBRDGR&type=photos&collection=10][b]Screenshot 4[/b][/url]

[size=5][b][color=#FF0000]Preview Sample :[/color][/b][/size]

http://786zx.com/c/watch_video.php?v=8U79G3G1HW18

[code]General
Unique ID                   : 241465227154382864464427111222724358203 (0xB5A882DAC22A63B2B2FC09FE3551703B)
Format                      : Matroska
Format version              : Version 4 / Version 2
File size                   : 599 MiB
Duration                    : 1h 58mn
Overall bit rate            : 705 Kbps
Encoded date                : UTC 2017-01-20 03:09:14
Writing application         : mkvmerge v7.9.0 ('Birds') 64bit
Writing library             : libebml v1.3.1 + libmatroska v1.4.2
DURATION                    : 01:58:41.397000000
NUMBER_OF_FRAMES            : 306693
NUMBER_OF_BYTES             : 71569560
_STATISTICS_WRITING_APP     : mkvmerge v7.9.0 ('Birds') 64bit
_STATISTICS_WRITING_DATE_UT : 2017-01-20 03:09:14
_STATISTICS_TAGS            : BPS DURATION NUMBER_OF_FRAMES NUMBER_OF_BYTES

Video
ID                          : 1
Format                      : HEVC
Format/Info                 : High Efficiency Video Coding
Format profile              : Main@L3@Main
Codec ID                    : V_MPEGH/ISO/HEVC
Duration                    : 1h 58mn
Width                       : 854 pixels
Height                      : 364 pixels
Display aspect ratio        : 2.35:1
Frame rate mode             : Constant
Frame rate                  : 25.000 fps
Color space                 : YUV
Chroma subsampling          : 4:2:0
Bit depth                   : 8 bits
Writing library             : x265 1.9:[Windows][GCC 4.7.0][32 bit] 8bit
Encoding settings           : wpp / ctu=32 / min-cu-size=16 / max-tu-size=32 / tu-intra-depth=1 / tu-inter-depth=1 / me=0 / subme=0 / merange=57 / no-rect / no-amp / max-merge=2 / temporal-mvp / early-skip / rdpenalty=0 / no-tskip / no-tskip-fast / strong-intra-smoothing / no-lossless / no-cu-lossless / no-constrained-intra / fast-intra / open-gop / no-temporal-layers / interlace=0 / keyint=250 / min-keyint=25 / scenecut=0 / rc-lookahead=5 / lookahead-slices=0 / bframes=3 / bframe-bias=0 / b-adapt=0 / ref=1 / limit-refs=0 / no-limit-modes / no-weightp / no-weightb / aq-mode=1 / qg-size=32 / aq-strength=0.00 / cbqpoffs=0 / crqpoffs=0 / rd=2 / psy-rd=2.00 / rdoq-level=0 / psy-rdoq=0.00 / no-signhide / deblock / no-sao / no-sao-non-deblock / b-pyramid / cutree / no-intra-refresh / rc=crf / crf=25.0 / qcomp=0.60 / qpmin=0 / qpmax=51 / qpstep=4 / ipratio=1.40 / pbratio=1.30
Language                    : Hindi
Default                     : Yes
Forced                      : No
Color range                 : Limited
Color primaries             : BT.709
Transfer characteristics    : BT.709
Matrix coefficients         : BT.709

Audio
ID                          : 2
Format                      : AAC
Format/Info                 : Advanced Audio Codec
Format profile              : LC
Codec ID                    : A_AAC
Duration                    : 1h 58mn
Channel(s)                  : 2 channels
Channel positions           : Front: L R
Sampling rate               : 44.1 KHz
Compression mode            : Lossy
Title                       : [url=http://786zx.com/t]786zx[/url]
Language                    : Hindi
Default                     : Yes
Forced                      : No

[/code]
]]>
[WowGirls]Anina Silk - Serious Petting [ mp4] http://glodls.to/torrent.php?id=2162002 http://glodls.to/torrent.php?id=2162002 Fri, 20 Jan 2017 03:14:00 +0000 Adult XXX
[center][URL=http://imgtornado.com/img-5881cec62f340.html][IMG]http://imgtornado.com/upload/small/2017/01/20/5881cec62f304.jpeg[/IMG][/URL]
[size=4]

[WowGirls]Anina Silk - Serious Petting [.mp4]


Video Duration: 00:29:05
Video Size: 651 MiB




[b]Screen 1[/b]
[url]http://imgtornado.com/img-5881ced9811e8.html[/url]
[b]Screen 2[/b]
[url]http://imggold.org/gyy7s1ljso6t/fbcd2074de78.jpg.html[/url]
[b]Best Shoot[/b]
[url]http://imgstudio.org/img-58817d3df3403.html[/url]
[/size]
[/center]
]]>
[HogTied]Kink - Abella Danger , The Pope - Abella Danger Submits in her Most Brutal Shoot to Date [ mp4] http://glodls.to/torrent.php?id=2162001 http://glodls.to/torrent.php?id=2162001 Fri, 20 Jan 2017 03:13:36 +0000 Adult XXX


[center][URL=http://imgtornado.com/img-5881cf3be93f6.html][IMG]http://imgtornado.com/upload/small/2017/01/20/5881cf3be93c1.jpeg[/IMG][/URL]
[size=4]


[HogTied]Kink - Abella Danger , The Pope - Abella Danger Submits in her Most Brutal Shoot to Date [.mp4]



Video Duration: 00:44:18
Video Size: 486 MiB

[b]Screen 1[/b]
[url]http://imgtornado.com/img-5881cf5255c8f.html[/url]
[b]Screen 2[/b]
[url]http://imggold.org/38nnbnmjstu1/2b118f27a8cd.jpg.html[/url]
[b]Best Shoot[/b]
[url]http://imgstudio.org/img-58817d4c8c2f8.html[/url]
[/size]
[/center]
]]>
[TrickyOldTeacher]Dorothy - Tricky Old Teacher[ mp4] http://glodls.to/torrent.php?id=2162000 http://glodls.to/torrent.php?id=2162000 Fri, 20 Jan 2017 03:13:12 +0000 Adult XXX

[center][URL=http://imgtornado.com/img-5881cfa6020a3.html][IMG]http://imgtornado.com/upload/small/2017/01/20/5881cfa602068.jpeg[/IMG][/URL]
[size=4]


[TrickyOldTeacher]Dorothy - Tricky Old Teacher[.mp4]



Video Duration: 00:20:03
Video Size: 362 MB


[b]Screen 1[/b]
[url]http://imgtornado.com/img-5881cfb703c64.html[/url]
[b]Screen 2[/b]
[url]http://imggold.org/pyi94pus7gzu/2f8914268e02.jpeg.html[/url]
[b]Best Shoot[/b]
[url]http://imgstudio.org/img-58817d59abba1.html[/url]
[/size]
[/center]
]]>
Life.in.Pieces.S02E11.HDTV.x264-FLEET[PRiME] http://glodls.to/torrent.php?id=2161999 http://glodls.to/torrent.php?id=2161999 Fri, 20 Jan 2017 03:10:38 +0000 TV Life.in.Pieces.S02E11.HDTV.x264-FLEET[PRiME]

[url=https://www.sparrowpics.com/image/LwB][img]https://www.sparrowpics.com/images/2015/12/10/Info.png[/img][/url]

[color=green]Complete name : Life.in.Pieces.S02E11.HDTV.x264-FLEET[PRiME].mkv
Format : Matroska
Format version : Version 2
File size : 222 MiB
Duration : 21 min 16 s
Overall bit rate : 1 462 kb/s
Writing application : x264.exe
Writing library : mkv2rls x264-tv version built on 2016.10.12

Video
ID : 1
Format : AVC
Format/Info : Advanced Video Codec
Format profile : High@L3.1
Format settings, CABAC : Yes
Format settings, ReFrames : 5 frames
Codec ID : V_MPEG4/ISO/AVC
Duration : 21 min 16 s
Width : 720 pixels
Height : 402 pixels
Display aspect ratio : 16:9
Frame rate mode : Constant
Frame rate : 23.976 (24000/1001) FPS
Color space : YUV
Chroma subsampling : 4:2:0
Bit depth : 8 bits
Scan type : Progressive
Writing library : x264 core 148 r2744 b97ae06
Encoding settings : cabac=1 / ref=5 / deblock=1:0:0 / analyse=0x3:0x113 / me=hex / subme=8 / psy=1 / psy_rd=1.00:0.00 / mixed_ref=1 / me_range=16 / chroma_me=1 / trellis=2 / 8x8dct=1 / cqm=0 / deadzone=21,11 / fast_pskip=1 / chroma_qp_offset=-2 / threads=13 / lookahead_threads=2 / sliced_threads=0 / nr=0 / decimate=1 / interlaced=0 / bluray_compat=0 / constrained_intra=0 / bframes=3 / b_pyramid=2 / b_adapt=1 / b_bias=0 / direct=3 / weightb=1 / open_gop=0 / weightp=2 / keyint=250 / keyint_min=23 / scenecut=40 / intra_refresh=0 / rc_lookahead=50 / rc=crf / mbtree=1 / crf=19.0 / qcomp=0.60 / qpmin=0 / qpmax=69 / qpstep=4 / ip_ratio=1.40 / aq=1:1.00
Language : English
Default : Yes
Forced : No
Color range : Limited
Matrix coefficients : BT.709

Audio
ID : 2
Format : AAC
Format/Info : Advanced Audio Codec
Format profile : LC
Codec ID : A_AAC
Duration : 21 min 16 s
Channel(s) : 2 channels
Channel positions : Front: L R
Sampling rate : 48.0 kHz
Frame rate : 46.875 FPS (1024 spf)
Compression mode : Lossy
Language : English
Default : Yes
Forced : No[/color]

[url=https://www.sparrowpics.com/image/UYe][img]https://www.sparrowpics.com/images/2015/12/10/Screens.png[/img][/url]

[color=red]Click Image To View Full Size[/color]

[URL=https://www.sparrowpics.com/image/lbq6M][IMG]https://www.sparrowpics.com/images/2017/01/20/lbq6M.th.jpg[/IMG][/URL]
[URL=https://www.sparrowpics.com/image/l41tV][b]Click To View Screenshot[/b][/URL]
[URL=https://www.sparrowpics.com/image/l4F2d][b]Click To View Screenshot[/b][/URL]
[URL=https://www.sparrowpics.com/image/l4Ls1][b]Click To View Screenshot[/b][/URL]

[/center] ]]>
Life.in.Pieces.S02E11.720p.HDTV.x264-FLEET[PRiME] http://glodls.to/torrent.php?id=2161998 http://glodls.to/torrent.php?id=2161998 Fri, 20 Jan 2017 03:10:35 +0000 TV Life.in.Pieces.S02E11.720p.HDTV.x264-FLEET[PRiME]

[url=https://www.sparrowpics.com/image/LwB][img]https://www.sparrowpics.com/images/2015/12/10/Info.png[/img][/url]

[color=green]Complete name : Life.in.Pieces.S02E11.720p.HDTV.x264-FLEET[PRiME].mkv
Format : Matroska
Format version : Version 2
File size : 673 MiB
Duration : 21 min 16 s
Overall bit rate : 4 424 kb/s
Writing application : x264.exe
Writing library : mkv2rls x264-tv version built on 2016.10.12

Video
ID : 1
Format : AVC
Format/Info : Advanced Video Codec
Format profile : High@L4.1
Format settings, CABAC : Yes
Format settings, ReFrames : 5 frames
Codec ID : V_MPEG4/ISO/AVC
Duration : 21 min 16 s
Bit rate : 3 952 kb/s
Width : 1 280 pixels
Height : 718 pixels
Display aspect ratio : 16:9
Frame rate mode : Constant
Frame rate : 23.976 (24000/1001) FPS
Color space : YUV
Chroma subsampling : 4:2:0
Bit depth : 8 bits
Scan type : Progressive
Bits/(Pixel*Frame) : 0.179
Stream size : 601 MiB (89%)
Writing library : x264 core 148 r2744 b97ae06
Encoding settings : cabac=1 / ref=5 / deblock=1:0:0 / analyse=0x3:0x113 / me=hex / subme=8 / psy=1 / psy_rd=1.00:0.00 / mixed_ref=1 / me_range=16 / chroma_me=1 / trellis=2 / 8x8dct=1 / cqm=0 / deadzone=21,11 / fast_pskip=1 / chroma_qp_offset=-2 / threads=22 / lookahead_threads=3 / sliced_threads=0 / nr=0 / decimate=1 / interlaced=0 / bluray_compat=0 / constrained_intra=0 / bframes=3 / b_pyramid=2 / b_adapt=1 / b_bias=0 / direct=3 / weightb=1 / open_gop=0 / weightp=2 / keyint=250 / keyint_min=23 / scenecut=40 / intra_refresh=0 / rc_lookahead=50 / rc=crf / mbtree=1 / crf=18.0 / qcomp=0.60 / qpmin=0 / qpmax=69 / qpstep=4 / ip_ratio=1.40 / aq=1:1.00
Language : English
Default : Yes
Forced : No
Color range : Limited
Matrix coefficients : BT.709

Audio
ID : 2
Format : AC-3
Format/Info : Audio Coding 3
Mode extension : CM (complete main)
Format settings, Endianness : Big
Codec ID : A_AC3
Duration : 21 min 16 s
Bit rate mode : Constant
Bit rate : 384 kb/s
Channel(s) : 6 channels
Channel positions : Front: L C R, Side: L R, LFE
Sampling rate : 48.0 kHz
Frame rate : 31.250 FPS (1536 spf)
Compression mode : Lossy
Stream size : 58.4 MiB (9%)
Language : English
Default : Yes
Forced : No

Text
ID : 3
Format : UTF-8
Codec ID : S_TEXT/UTF8
Codec ID/Info : UTF-8 Plain Text
Title : English
Language : English
Default : No
Forced : No[/color]

[url=https://www.sparrowpics.com/image/UYe][img]https://www.sparrowpics.com/images/2015/12/10/Screens.png[/img][/url]

[color=red]Click Image To View Full Size[/color]

[URL=https://www.sparrowpics.com/image/lbxgb][IMG]https://www.sparrowpics.com/images/2017/01/20/lbxgb.th.jpg[/IMG][/URL]
[URL=https://www.sparrowpics.com/image/lb2X3][b]Click To View Screenshot[/b][/URL]
[URL=https://www.sparrowpics.com/image/lbBVK][b]Click To View Screenshot[/b][/URL]
[URL=https://www.sparrowpics.com/image/lbhFX][b]Click To View Screenshot[/b][/URL]

[/center] ]]>
Nashville.2012.S05E04.720p.HDTV.x264-FLEET[PRiME] http://glodls.to/torrent.php?id=2161997 http://glodls.to/torrent.php?id=2161997 Fri, 20 Jan 2017 03:06:26 +0000 TV Nashville.2012.S05E04.720p.HDTV.x264-FLEET[PRiME]

[url=https://www.sparrowpics.com/image/LwB][img]https://www.sparrowpics.com/images/2015/12/10/Info.png[/img][/url]

[color=green]Complete name : Nashville.2012.S05E04.720p.HDTV.x264-FLEET[PRiME].mkv
Format : Matroska
Format version : Version 2
File size : 773 MiB
Duration : 42 min 27 s
Overall bit rate : 2 544 kb/s
Writing application : x264.exe
Writing library : mkv2rls x264-tv version built on 2016.10.12

Video
ID : 1
Format : AVC
Format/Info : Advanced Video Codec
Format profile : High@L4.1
Format settings, CABAC : Yes
Format settings, ReFrames : 5 frames
Codec ID : V_MPEG4/ISO/AVC
Duration : 42 min 27 s
Bit rate : 2 109 kb/s
Width : 1 280 pixels
Height : 720 pixels
Display aspect ratio : 16:9
Frame rate mode : Constant
Frame rate : 23.976 (24000/1001) FPS
Color space : YUV
Chroma subsampling : 4:2:0
Bit depth : 8 bits
Scan type : Progressive
Bits/(Pixel*Frame) : 0.095
Stream size : 641 MiB (83%)
Writing library : x264 core 148 r2744 b97ae06
Encoding settings : cabac=1 / ref=5 / deblock=1:0:0 / analyse=0x3:0x113 / me=hex / subme=8 / psy=1 / psy_rd=1.00:0.00 / mixed_ref=1 / me_range=16 / chroma_me=1 / trellis=2 / 8x8dct=1 / cqm=0 / deadzone=21,11 / fast_pskip=1 / chroma_qp_offset=-2 / threads=18 / lookahead_threads=3 / sliced_threads=0 / nr=0 / decimate=1 / interlaced=0 / bluray_compat=0 / constrained_intra=0 / bframes=3 / b_pyramid=2 / b_adapt=1 / b_bias=0 / direct=3 / weightb=1 / open_gop=0 / weightp=2 / keyint=250 / keyint_min=23 / scenecut=40 / intra_refresh=0 / rc_lookahead=50 / rc=crf / mbtree=1 / crf=18.0 / qcomp=0.60 / qpmin=0 / qpmax=69 / qpstep=4 / ip_ratio=1.40 / aq=1:1.00
Language : English
Default : Yes
Forced : No

Audio
ID : 2
Format : AC-3
Format/Info : Audio Coding 3
Mode extension : CM (complete main)
Format settings, Endianness : Big
Codec ID : A_AC3
Duration : 42 min 27 s
Bit rate mode : Constant
Bit rate : 384 kb/s
Channel(s) : 6 channels
Channel positions : Front: L C R, Side: L R, LFE
Sampling rate : 48.0 kHz
Frame rate : 31.250 FPS (1536 spf)
Compression mode : Lossy
Stream size : 117 MiB (15%)
Language : English
Default : Yes
Forced : No

Text
ID : 3
Format : UTF-8
Codec ID : S_TEXT/UTF8
Codec ID/Info : UTF-8 Plain Text
Title : English
Language : English
Default : No
Forced : No[/color]

[url=https://www.sparrowpics.com/image/UYe][img]https://www.sparrowpics.com/images/2015/12/10/Screens.png[/img][/url]

[color=red]Click Image To View Full Size[/color]

[URL=https://www.sparrowpics.com/image/lbmxx][IMG]https://www.sparrowpics.com/images/2017/01/20/lbmxx.th.jpg[/IMG][/URL]
[URL=https://www.sparrowpics.com/image/lb9oN][b]Click To View Screenshot[/b][/URL]
[URL=https://www.sparrowpics.com/image/lbQ5Y][b]Click To View Screenshot[/b][/URL]
[URL=https://www.sparrowpics.com/image/lbfm9][b]Click To View Screenshot[/b][/URL]

[/center] ]]>
Chicago.Med.S02E11.720p.HDTV.x264-FLEET[PRiME] http://glodls.to/torrent.php?id=2161996 http://glodls.to/torrent.php?id=2161996 Fri, 20 Jan 2017 03:03:04 +0000 TV Chicago.Med.S02E11.720p.HDTV.x264-FLEET[PRiME]

[url=https://www.sparrowpics.com/image/LwB][img]https://www.sparrowpics.com/images/2015/12/10/Info.png[/img][/url]

[color=green]Complete name : Chicago.Med.S02E11.720p.HDTV.x264-FLEET[PRiME].mkv
Format : Matroska
Format version : Version 2
File size : 731 MiB
Duration : 42 min 3 s
Overall bit rate : 2 430 kb/s
Writing application : x264.exe
Writing library : mkv2rls x264-tv version built on 2016.10.12

Video
ID : 1
Format : AVC
Format/Info : Advanced Video Codec
Format profile : High@L4.1
Format settings, CABAC : Yes
Format settings, ReFrames : 5 frames
Codec ID : V_MPEG4/ISO/AVC
Duration : 42 min 3 s
Bit rate : 1 998 kb/s
Width : 1 280 pixels
Height : 718 pixels
Display aspect ratio : 16:9
Frame rate mode : Constant
Frame rate : 23.976 (24000/1001) FPS
Color space : YUV
Chroma subsampling : 4:2:0
Bit depth : 8 bits
Scan type : Progressive
Bits/(Pixel*Frame) : 0.091
Stream size : 601 MiB (82%)
Writing library : x264 core 148 r2744 b97ae06
Encoding settings : cabac=1 / ref=5 / deblock=1:-2:-2 / analyse=0x3:0x113 / me=hex / subme=8 / psy=1 / psy_rd=1.05:0.00 / mixed_ref=1 / me_range=16 / chroma_me=1 / trellis=2 / 8x8dct=1 / cqm=0 / deadzone=21,11 / fast_pskip=1 / chroma_qp_offset=-2 / threads=22 / lookahead_threads=3 / sliced_threads=0 / nr=0 / decimate=1 / interlaced=0 / bluray_compat=0 / constrained_intra=0 / bframes=3 / b_pyramid=2 / b_adapt=1 / b_bias=0 / direct=3 / weightb=1 / open_gop=0 / weightp=2 / keyint=250 / keyint_min=23 / scenecut=40 / intra_refresh=0 / rc_lookahead=50 / rc=crf / mbtree=1 / crf=18.0 / qcomp=0.60 / qpmin=0 / qpmax=69 / qpstep=4 / ip_ratio=1.40 / aq=1:0.70
Language : English
Default : Yes
Forced : No

Audio
ID : 2
Format : AC-3
Format/Info : Audio Coding 3
Mode extension : CM (complete main)
Format settings, Endianness : Big
Codec ID : A_AC3
Duration : 42 min 3 s
Bit rate mode : Constant
Bit rate : 384 kb/s
Channel(s) : 6 channels
Channel positions : Front: L C R, Side: L R, LFE
Sampling rate : 48.0 kHz
Frame rate : 31.250 FPS (1536 spf)
Compression mode : Lossy
Stream size : 116 MiB (16%)
Language : English
Default : Yes
Forced : No

Text
ID : 3
Format : UTF-8
Codec ID : S_TEXT/UTF8
Codec ID/Info : UTF-8 Plain Text
Title : English
Language : English
Default : No
Forced : No[/color]

[url=https://www.sparrowpics.com/image/UYe][img]https://www.sparrowpics.com/images/2015/12/10/Screens.png[/img][/url]

[color=red]Click Image To View Full Size[/color]

[URL=https://www.sparrowpics.com/image/lbjV6][IMG]https://www.sparrowpics.com/images/2017/01/20/lbjV6.th.jpg[/IMG][/URL]
[URL=https://www.sparrowpics.com/image/lb71h][b]Click To View Screenshot[/b][/URL]
[URL=https://www.sparrowpics.com/image/lbKit][b]Click To View Screenshot[/b][/URL]
[URL=https://www.sparrowpics.com/image/lbktZ][b]Click To View Screenshot[/b][/URL]

[/center] ]]>
Chicago.Med.S02E11.HDTV.x264-FLEET[PRiME] http://glodls.to/torrent.php?id=2161995 http://glodls.to/torrent.php?id=2161995 Fri, 20 Jan 2017 03:01:04 +0000 TV Chicago.Med.S02E11.HDTV.x264-FLEET[PRiME]

[url=https://www.sparrowpics.com/image/LwB][img]https://www.sparrowpics.com/images/2015/12/10/Info.png[/img][/url]

[color=green]Complete name : Chicago.Med.S02E11.HDTV.x264-FLEET[PRiME].mkv
Format : Matroska
Format version : Version 2
File size : 257 MiB
Duration : 42 min 3 s
Overall bit rate : 854 kb/s
Writing application : x264.exe
Writing library : mkv2rls x264-tv version built on 2016.10.12

Video
ID : 1
Format : AVC
Format/Info : Advanced Video Codec
Format profile : High@L3.1
Format settings, CABAC : Yes
Format settings, ReFrames : 5 frames
Codec ID : V_MPEG4/ISO/AVC
Duration : 42 min 3 s
Width : 720 pixels
Height : 402 pixels
Display aspect ratio : 16:9
Frame rate mode : Constant
Frame rate : 23.976 (24000/1001) FPS
Color space : YUV
Chroma subsampling : 4:2:0
Bit depth : 8 bits
Scan type : Progressive
Writing library : x264 core 148 r2744 b97ae06
Encoding settings : cabac=1 / ref=5 / deblock=1:0:0 / analyse=0x3:0x113 / me=hex / subme=8 / psy=1 / psy_rd=1.00:0.00 / mixed_ref=1 / me_range=16 / chroma_me=1 / trellis=2 / 8x8dct=1 / cqm=0 / deadzone=21,11 / fast_pskip=1 / chroma_qp_offset=-2 / threads=13 / lookahead_threads=2 / sliced_threads=0 / nr=0 / decimate=1 / interlaced=0 / bluray_compat=0 / constrained_intra=0 / bframes=3 / b_pyramid=2 / b_adapt=1 / b_bias=0 / direct=3 / weightb=1 / open_gop=0 / weightp=2 / keyint=250 / keyint_min=23 / scenecut=40 / intra_refresh=0 / rc_lookahead=50 / rc=crf / mbtree=1 / crf=19.0 / qcomp=0.60 / qpmin=0 / qpmax=69 / qpstep=4 / ip_ratio=1.40 / aq=1:1.00
Language : English
Default : Yes
Forced : No
Color range : Limited
Matrix coefficients : BT.709

Audio
ID : 2
Format : AAC
Format/Info : Advanced Audio Codec
Format profile : LC
Codec ID : A_AAC
Duration : 42 min 3 s
Channel(s) : 2 channels
Channel positions : Front: L R
Sampling rate : 48.0 kHz
Frame rate : 46.875 FPS (1024 spf)
Compression mode : Lossy
Language : English
Default : Yes
Forced : No[/color]

[url=https://www.sparrowpics.com/image/UYe][img]https://www.sparrowpics.com/images/2015/12/10/Screens.png[/img][/url]

[color=red]Click Image To View Full Size[/color]

[URL=https://www.sparrowpics.com/image/lbH4n][IMG]https://www.sparrowpics.com/images/2017/01/20/lbH4n.th.jpg[/IMG][/URL]
[URL=https://www.sparrowpics.com/image/lbGmy][b]Click To View Screenshot[/b][/URL]
[URL=https://www.sparrowpics.com/image/lbDgJ][b]Click To View Screenshot[/b][/URL]
[URL=https://www.sparrowpics.com/image/lbVzc][b]Click To View Screenshot[/b][/URL]

[/center] ]]>
Days Of Our Lives - S52 E86 - Thursday, January 19, 2017 http://glodls.to/torrent.php?id=2161989 http://glodls.to/torrent.php?id=2161989 Fri, 20 Jan 2017 03:00:25 +0000 TV Your Internet Provider can track your torrent activity! Hide your IP address with a VPN. We recommend</strong> <a href="https://trust.zone/go/r.php?RID=B-VZZLC-MDAxNDc4MTYwNjE4" target="_blank">Trust.Zone VPN</a><br /><br />Origin from <a href="http://extra.to">extratorrent</a> ]]> Who.Wants.to.Be.a.Millionaire.2017.01.19.HDTV.x264-CROOKS[ettv] http://glodls.to/torrent.php?id=2161980 http://glodls.to/torrent.php?id=2161980 Fri, 20 Jan 2017 03:00:23 +0000 TV Your Internet Provider can track your torrent activity! Hide your IP address with a VPN. We recommend</strong> <a href="https://trust.zone/go/r.php?RID=B-VZZLC-MDAxNDc4MTYwNjE4" target="_blank">Trust.Zone VPN</a><br /><br />Origin from <a href="http://extra.to">extratorrent</a> ]]> Frequency.S01E12.WEBRip.XviD-FUM[ettv] http://glodls.to/torrent.php?id=2161975 http://glodls.to/torrent.php?id=2161975 Fri, 20 Jan 2017 03:00:21 +0000 TV Your Internet Provider can track your torrent activity! Hide your IP address with a VPN. We recommend</strong> <a href="https://trust.zone/go/r.php?RID=B-VZZLC-MDAxNDc4MTYwNjE4" target="_blank">Trust.Zone VPN</a><br /><br />Origin from <a href="http://extra.to">extratorrent</a> ]]> Law.and.Order.SVU.S18E09.WEB-DL.XviD-FUM[ettv] http://glodls.to/torrent.php?id=2161970 http://glodls.to/torrent.php?id=2161970 Fri, 20 Jan 2017 03:00:20 +0000 TV Your Internet Provider can track your torrent activity! Hide your IP address with a VPN. We recommend</strong> <a href="https://trust.zone/go/r.php?RID=B-VZZLC-MDAxNDc4MTYwNjE4" target="_blank">Trust.Zone VPN</a><br /><br />Origin from <a href="http://extra.to">extratorrent</a> ]]> The.Blacklist.S04E11.720p.HDTV.x264-KILLERS[ettv] http://glodls.to/torrent.php?id=2161965 http://glodls.to/torrent.php?id=2161965 Fri, 20 Jan 2017 03:00:18 +0000 TV Your Internet Provider can track your torrent activity! Hide your IP address with a VPN. We recommend</strong> <a href="https://trust.zone/go/r.php?RID=B-VZZLC-MDAxNDc4MTYwNjE4" target="_blank">Trust.Zone VPN</a><br /><br />Origin from <a href="http://extra.to">extratorrent</a> ]]> Kirby Buckets S03E02 720p HDTV x264-W4F http://glodls.to/torrent.php?id=2161962 http://glodls.to/torrent.php?id=2161962 Fri, 20 Jan 2017 03:00:17 +0000 TV http://www.tvrage.com/schedule.php?show_yesterday=1. ]]> The.Blacklist.S04E11.HDTV.x264-KILLERS[ettv] http://glodls.to/torrent.php?id=2161961 http://glodls.to/torrent.php?id=2161961 Fri, 20 Jan 2017 03:00:16 +0000 TV Your Internet Provider can track your torrent activity! Hide your IP address with a VPN. We recommend</strong> <a href="https://trust.zone/go/r.php?RID=B-VZZLC-MDAxNDc4MTYwNjE4" target="_blank">Trust.Zone VPN</a><br /><br />Origin from <a href="http://extra.to">extratorrent</a> ]]> The.Big.Bang.Theory.S10E13.HDTV.x264-LOL[ettv] http://glodls.to/torrent.php?id=2161957 http://glodls.to/torrent.php?id=2161957 Fri, 20 Jan 2017 03:00:15 +0000 TV Your Internet Provider can track your torrent activity! Hide your IP address with a VPN. We recommend</strong> <a href="https://trust.zone/go/r.php?RID=B-VZZLC-MDAxNDc4MTYwNjE4" target="_blank">Trust.Zone VPN</a><br /><br />Origin from <a href="http://extra.to">extratorrent</a> ]]> General Hospital - S54 E199 - Thursday, January 19, 2017 http://glodls.to/torrent.php?id=2161952 http://glodls.to/torrent.php?id=2161952 Fri, 20 Jan 2017 03:00:13 +0000 TV Your Internet Provider can track your torrent activity! Hide your IP address with a VPN. We recommend</strong> <a href="https://trust.zone/go/r.php?RID=B-VZZLC-MDAxNDc4MTYwNjE4" target="_blank">Trust.Zone VPN</a><br /><br />Origin from <a href="http://extra.to">extratorrent</a> ]]> The Rachel Maddow Show 2017 01 18 720p WEBRip x264-LM http://glodls.to/torrent.php?id=2161945 http://glodls.to/torrent.php?id=2161945 Fri, 20 Jan 2017 03:00:12 +0000 TV Your Internet Provider can track your torrent activity! Hide your IP address with a VPN. We recommend</strong> <a href="https://trust.zone/go/r.php?RID=B-VZZLC-MDAxNDc4MTYwNjE4" target="_blank">Trust.Zone VPN</a><br /><br />Origin from <a href="http://extra.to">extratorrent</a> ]]> All In with Chris Hayes 2017 01 18 720p WEBRip x264-LM http://glodls.to/torrent.php?id=2161941 http://glodls.to/torrent.php?id=2161941 Fri, 20 Jan 2017 03:00:10 +0000 TV Your Internet Provider can track your torrent activity! Hide your IP address with a VPN. We recommend</strong> <a href="https://trust.zone/go/r.php?RID=B-VZZLC-MDAxNDc4MTYwNjE4" target="_blank">Trust.Zone VPN</a><br /><br />Origin from <a href="http://extra.to">extratorrent</a> ]]> The Last Word with Lawrence ODonnell 2017 01 18 720p WEBRip x264-LM http://glodls.to/torrent.php?id=2161938 http://glodls.to/torrent.php?id=2161938 Fri, 20 Jan 2017 03:00:09 +0000 TV Your Internet Provider can track your torrent activity! Hide your IP address with a VPN. We recommend</strong> <a href="https://trust.zone/go/r.php?RID=B-VZZLC-MDAxNDc4MTYwNjE4" target="_blank">Trust.Zone VPN</a><br /><br />Origin from <a href="http://extra.to">extratorrent</a> ]]> The 11th Hour with Brian Williams 2017 01 18 720p WEBRip x264-LM http://glodls.to/torrent.php?id=2161934 http://glodls.to/torrent.php?id=2161934 Fri, 20 Jan 2017 03:00:08 +0000 TV Your Internet Provider can track your torrent activity! Hide your IP address with a VPN. We recommend</strong> <a href="https://trust.zone/go/r.php?RID=B-VZZLC-MDAxNDc4MTYwNjE4" target="_blank">Trust.Zone VPN</a><br /><br />Origin from <a href="http://extra.to">extratorrent</a> ]]> The Good Place S01E12 720p HDTV x264-FLEET http://glodls.to/torrent.php?id=2161929 http://glodls.to/torrent.php?id=2161929 Fri, 20 Jan 2017 03:00:06 +0000 TV http://www.tvrage.com/schedule.php?show_yesterday=1. ]]> Mom.S04E11.720p.HDTV.X264-DIMENSION[ettv] http://glodls.to/torrent.php?id=2161928 http://glodls.to/torrent.php?id=2161928 Fri, 20 Jan 2017 03:00:06 +0000 TV Your Internet Provider can track your torrent activity! Hide your IP address with a VPN. We recommend</strong> <a href="https://trust.zone/go/r.php?RID=B-VZZLC-MDAxNDc4MTYwNjE4" target="_blank">Trust.Zone VPN</a><br /><br />Origin from <a href="http://extra.to">extratorrent</a> ]]> The Good Place S01E12 HDTV x264-FLEET http://glodls.to/torrent.php?id=2161927 http://glodls.to/torrent.php?id=2161927 Fri, 20 Jan 2017 03:00:05 +0000 TV http://www.tvrage.com/schedule.php?show_yesterday=1. ]]> The Big Bang Theory PROPER S10E13 720p HDTV x264-FLEET http://glodls.to/torrent.php?id=2161926 http://glodls.to/torrent.php?id=2161926 Fri, 20 Jan 2017 03:00:04 +0000 TV http://www.tvrage.com/schedule.php?show_yesterday=1. ]]> Mom.S04E11.HDTV.x264-LOL[ettv] http://glodls.to/torrent.php?id=2161925 http://glodls.to/torrent.php?id=2161925 Fri, 20 Jan 2017 03:00:04 +0000 TV Your Internet Provider can track your torrent activity! Hide your IP address with a VPN. We recommend</strong> <a href="https://trust.zone/go/r.php?RID=B-VZZLC-MDAxNDc4MTYwNjE4" target="_blank">Trust.Zone VPN</a><br /><br />Origin from <a href="http://extra.to">extratorrent</a> ]]> Mom S04E11 HDTV x264-LOL http://glodls.to/torrent.php?id=2161924 http://glodls.to/torrent.php?id=2161924 Fri, 20 Jan 2017 03:00:03 +0000 TV http://www.tvrage.com/schedule.php?show_yesterday=1. ]]> Mom S04E11 720p HDTV X264-DIMENSION http://glodls.to/torrent.php?id=2161923 http://glodls.to/torrent.php?id=2161923 Fri, 20 Jan 2017 03:00:02 +0000 TV http://www.tvrage.com/schedule.php?show_yesterday=1. ]]> The.Blacklist.S04E11.HDTV.XviD-FUM[ettv] http://glodls.to/torrent.php?id=2161922 http://glodls.to/torrent.php?id=2161922 Fri, 20 Jan 2017 03:00:02 +0000 TV Your Internet Provider can track your torrent activity! Hide your IP address with a VPN. We recommend</strong> <a href="https://trust.zone/go/r.php?RID=B-VZZLC-MDAxNDc4MTYwNjE4" target="_blank">Trust.Zone VPN</a><br /><br />Origin from <a href="http://extra.to">extratorrent</a> ]]> [MormonGirlz] Alison - The Calling /NEW 20 01 2017 [ mp4] http://glodls.to/torrent.php?id=2161921 http://glodls.to/torrent.php?id=2161921 Fri, 20 Jan 2017 02:48:19 +0000 Adult XXX
[center][URL=http://imgtornado.com/img-5881c6e818e64.html][IMG]http://imgtornado.com/upload/small/2017/01/20/5881c6e818e29.jpeg[/IMG][/URL]
[size=4]


[MormonGirlz] Alison - The Calling /NEW 20.01.2017 [.mp4]


Video Duration:00:21:25
Video: 790 MB


[b]Screen 1[/b]
[url]http://imgtornado.com/img-5881c701d35f7.html[/url]
[b]Screen 2[/b]
[url]http://imggold.org/vq627qjzab3t/865786186ed5.jpeg.html[/url]
[b]Best Shoot[/b]
[url]http://imgstudio.org/img-588175729b175.html[/url]
[/size]
[/center]
]]>
[POVD]Janice Griffith - Oil Me Up /NEW 20 01 2017 [ mp4] http://glodls.to/torrent.php?id=2161920 http://glodls.to/torrent.php?id=2161920 Fri, 20 Jan 2017 02:47:58 +0000 Adult XXX
[center][URL=http://imgtornado.com/img-5881c79d3e93f.html][IMG]http://imgtornado.com/upload/small/2017/01/20/5881c79d3e902.jpeg[/IMG][/URL]
[size=4]

[POVD]Janice Griffith - Oil Me Up /NEW 20.01.2017 [.mp4]


Duration: 00:29:15
Size: 563MB


[b]Screen 1[/b]
[url]http://imgtornado.com/img-5881c7b388ad6.html[/url]
[b]Screen 2[/b]
[url]http://imggold.org/7uztolp5bzbh/cedc7a3dd3da.jpeg.html[/url]
[b]Best Shoot[/b]
[url]http://imgstudio.org/img-5881749d7320b.html[/url]
[/size]
[/center]
]]>
Young Freaks 6 (Devils Films) XXX 2017 WEB-DL Split Scenes http://glodls.to/torrent.php?id=2161919 http://glodls.to/torrent.php?id=2161919 Fri, 20 Jan 2017 02:47:35 +0000 Adult XXX [center][URL=http://imgtornado.com/img-5881c5e408b4b.html][IMG]http://imgtornado.com/upload/small/2017/01/20/5881c5e408b10.jpeg[/IMG][/URL]
[size=4]


Young Freaks 6 (Devils Films) XXX 2017 WEB-DL Split Scenes



Studio: Devils Films
starring: Jenna Ashley, Ashley Adams, Karlee Grey, Casey Calvert.
Duration: 108 min
Size: 1,12 Gb



[b]Screens[/b]
[url]http://imgtornado.com/img-5881c601df19c.html[/url]
[url]http://imgtornado.com/img-5881c61b5fccb.html[/url]
[url]http://imggold.org/ys4pfnv01uj1/50a2a5ab2479.jpeg.html[/url]
[url]http://imggold.org/9371gthqjjoe/84e3478f9d5c.jpeg.html[/url]
[/size]
[/center] ]]>
Ley.Lines.1999.iNTERNAL.BDRip.x264-MANiC http://glodls.to/torrent.php?id=2161918 http://glodls.to/torrent.php?id=2161918 Fri, 20 Jan 2017 02:40:23 +0000 Movies [color=red][b]
Ley.Lines.1999.iNTERNAL.BDRip.x264-MANiC

[/b][/color]


IMDb: http://www.imdb.com/title/tt0258766/


[img]http://ia.media-imdb.com/images/M/MV5BMTI4MzUwNzEwMl5BMl5BanBnXkFtZTcwMTM0NTEzMQ@@._V1_SX300.jpg[/img]


[url=https://boltimg.com/image/t52z][img]https://boltimg.com/images/t52z.png[/img][/url]



[color=green][b]
General

(Duration): 1h 44mn
(FileSize): 1.43 GiB



Audio

(Format): AAC - Advanced Audio Codec
(Codec): AAC LC
Audio

(Format): AAC - Advanced Audio Codec
(Codec): AAC LC



Video

(Format): AVC - Advanced Video Codec
(Media): video/H264
(Format): x264
(Resolution): 720x390 px
(AspectRatio): 1.85:1
(FrameRate): 23.976 fps




[/b][/color]


[url=https://boltimg.com/image/tzTE][img]https://boltimg.com/images/tzTE.png[/img][/url]



[color=purple][b](Click to enlarge)[/b][/color]

[url=https://boltimg.com/image/u7jBm][img]https://boltimg.com/images/u7jBm.th.jpg[/img][/url] [url=https://boltimg.com/image/u7kFI][img]https://boltimg.com/images/u7kFI.th.jpg[/img][/url] [url=https://boltimg.com/image/u7qN5][img]https://boltimg.com/images/u7qN5.th.jpg[/img][/url] [url=https://boltimg.com/image/u7T2W][img]https://boltimg.com/images/u7T2W.th.jpg[/img][/url] [url=https://boltimg.com/image/u73mx][img]https://boltimg.com/images/u73mx.th.jpg[/img][/url] [url=https://boltimg.com/image/u795X][img]https://boltimg.com/images/u795X.th.jpg[/img][/url]

[/center]
]]>
Pornostar.1998.iNTERNAL.BDRip.x264-MANiC[PRiME] http://glodls.to/torrent.php?id=2161917 http://glodls.to/torrent.php?id=2161917 Fri, 20 Jan 2017 02:32:56 +0000 Movies Pornostar.1998.iNTERNAL.BDRip.x264-MANiC[PRiME]

ImDb: [URL]http://www.imdb.com/title/tt0166314[/URL]

[url=https://www.sparrowpics.com/image/LwB][img]https://www.sparrowpics.com/images/2015/12/10/Info.png[/img][/url]

[color=green]Complete name : pornostar.1998.internal.bdrip.x264-manic[PRiME].mkv
Format : Matroska
Format version : Version 4 / Version 2
File size : 675 MiB
Duration : 1 h 37 min
Overall bit rate : 967 kb/s
Encoded date : UTC 2017-01-10 19:03:22
Writing application : mkvmerge v8.3.0 ('Over the Horizon') 64bit
Writing library : libebml v1.3.1 + libmatroska v1.4.2

Video
ID : 1
Format : AVC
Format/Info : Advanced Video Codec
Format profile : High@L3.1
Format settings, CABAC : Yes
Format settings, ReFrames : 5 frames
Codec ID : V_MPEG4/ISO/AVC
Duration : 1 h 37 min
Bit rate : 861 kb/s
Width : 720 pixels
Height : 386 pixels
Display aspect ratio : 1.85:1
Frame rate mode : Constant
Frame rate : 23.976 (24000/1001) FPS
Color space : YUV
Chroma subsampling : 4:2:0
Bit depth : 8 bits
Scan type : Progressive
Bits/(Pixel*Frame) : 0.129
Stream size : 600 MiB (89%)
Writing library : x264 core 148 r2705 3f5ed56
Encoding settings : cabac=1 / ref=5 / deblock=1:-1:-1 / analyse=0x3:0x113 / me=umh / subme=8 / psy=1 / psy_rd=1.00:0.15 / mixed_ref=1 / me_range=16 / chroma_me=1 / trellis=2 / 8x8dct=1 / cqm=0 / deadzone=21,11 / fast_pskip=1 / chroma_qp_offset=-3 / threads=12 / lookahead_threads=2 / sliced_threads=0 / nr=0 / decimate=1 / interlaced=0 / bluray_compat=0 / constrained_intra=0 / bframes=3 / b_pyramid=2 / b_adapt=2 / b_bias=0 / direct=3 / weightb=1 / open_gop=0 / weightp=2 / keyint=250 / keyint_min=23 / scenecut=40 / intra_refresh=0 / rc_lookahead=50 / rc=crf / mbtree=1 / crf=19.0 / qcomp=0.60 / qpmin=0 / qpmax=69 / qpstep=4 / ip_ratio=1.40 / aq=1:1.00
Language : English
Default : Yes
Forced : No
Color range : Limited
Matrix coefficients : BT.709

Audio
ID : 2
Format : AAC
Format/Info : Advanced Audio Codec
Format profile : LC
Codec ID : A_AAC
Duration : 1 h 37 min
Bit rate : 104 kb/s
Channel(s) : 2 channels
Channel positions : Front: L R
Sampling rate : 48.0 kHz
Frame rate : 46.875 FPS (1024 spf)
Compression mode : Lossy
Delay relative to video : 9 ms
Stream size : 72.9 MiB (11%)
Language : Japanese
Default : Yes
Forced : No

Text
ID : 3
Format : UTF-8
Codec ID : S_TEXT/UTF8
Codec ID/Info : UTF-8 Plain Text
Duration : 1 h 35 min
Bit rate : 15 b/s
Count of elements : 433
Stream size : 11.1 KiB (0%)
Title : forced
Language : English
Default : Yes
Forced : Yes

Menu
00:00:00.000 : en:00:00:00.000
00:07:16.186 : en:00:07:16.186
00:15:44.068 : en:00:15:44.068
00:21:06.974 : en:00:21:06.974
00:32:40.208 : en:00:32:40.208
00:42:02.645 : en:00:42:02.645
00:52:59.551 : en:00:52:59.551
01:02:38.046 : en:01:02:38.046
01:09:34.087 : en:01:09:34.087
01:19:23.550 : en:01:19:23.550
01:30:19.164 : en:01:30:19.164
01:35:12.290 : en:01:35:12.290[/color]

[url=https://www.sparrowpics.com/image/UYe][img]https://www.sparrowpics.com/images/2015/12/10/Screens.png[/img][/url]

[color=red]Click Image To View Full Size[/color]

[URL=https://www.sparrowpics.com/image/lbSiP][IMG]https://www.sparrowpics.com/images/2017/01/20/lbSiP.th.jpg[/IMG][/URL]
[URL=https://www.sparrowpics.com/image/lbelm][b]Click To View Screenshot[/b][/URL]
[URL=https://www.sparrowpics.com/image/lblxr][b]Click To View Screenshot[/b][/URL]
[URL=https://www.sparrowpics.com/image/lb8oW][b]Click To View Screenshot[/b][/URL]

[/center] ]]>
Ley.Lines.1999.iNTERNAL.BDRip.x264-MANiC[PRiME] http://glodls.to/torrent.php?id=2161916 http://glodls.to/torrent.php?id=2161916 Fri, 20 Jan 2017 02:32:52 +0000 Movies Ley.Lines.1999.iNTERNAL.BDRip.x264-MANiC[PRiME]

ImDb: [URL]http://www.imdb.com/title/tt0258766[/URL]

[url=https://www.sparrowpics.com/image/LwB][img]https://www.sparrowpics.com/images/2015/12/10/Info.png[/img][/url]

[color=green]Complete name : ley.lines.1999.internal.bdrip.x264-manic[PRiME].mkv
Format : Matroska
Format version : Version 4 / Version 2
File size : 1.43 GiB
Duration : 1 h 44 min
Overall bit rate : 1 953 kb/s
Encoded date : UTC 2017-01-20 00:19:17
Writing application : mkvmerge v8.5.1 ('Where you lead I will follow') 64bit
Writing library : libebml v1.3.3 + libmatroska v1.4.4

Video
ID : 1
Format : AVC
Format/Info : Advanced Video Codec
Format profile : High@L3.1
Format settings, CABAC : Yes
Format settings, ReFrames : 5 frames
Codec ID : V_MPEG4/ISO/AVC
Duration : 1 h 44 min
Bit rate : 1 686 kb/s
Width : 720 pixels
Height : 390 pixels
Display aspect ratio : 1.85:1
Frame rate mode : Constant
Frame rate : 23.976 (24000/1001) FPS
Color space : YUV
Chroma subsampling : 4:2:0
Bit depth : 8 bits
Scan type : Progressive
Bits/(Pixel*Frame) : 0.250
Stream size : 1.23 GiB (86%)
Writing library : x264 core 148 r2705 3f5ed56
Encoding settings : cabac=1 / ref=5 / deblock=1:-1:-1 / analyse=0x3:0x113 / me=umh / subme=8 / psy=1 / psy_rd=1.00:0.15 / mixed_ref=1 / me_range=16 / chroma_me=1 / trellis=2 / 8x8dct=1 / cqm=0 / deadzone=21,11 / fast_pskip=1 / chroma_qp_offset=-3 / threads=12 / lookahead_threads=2 / sliced_threads=0 / nr=0 / decimate=1 / interlaced=0 / bluray_compat=0 / constrained_intra=0 / bframes=3 / b_pyramid=2 / b_adapt=2 / b_bias=0 / direct=3 / weightb=1 / open_gop=0 / weightp=2 / keyint=250 / keyint_min=23 / scenecut=40 / intra_refresh=0 / rc_lookahead=50 / rc=crf / mbtree=1 / crf=19.0 / qcomp=0.60 / qpmin=0 / qpmax=69 / qpstep=4 / ip_ratio=1.40 / aq=1:1.00
Language : English
Default : Yes
Forced : No
Color range : Limited
Matrix coefficients : BT.709

Audio #1
ID : 2
Format : AAC
Format/Info : Advanced Audio Codec
Format profile : LC
Codec ID : A_AAC
Duration : 1 h 44 min
Bit rate : 144 kb/s
Channel(s) : 2 channels
Channel positions : Front: L R
Sampling rate : 48.0 kHz
Frame rate : 46.875 FPS (1024 spf)
Compression mode : Lossy
Delay relative to video : 9 ms
Stream size : 107 MiB (7%)
Language : Japanese
Default : Yes
Forced : No

Audio #2
ID : 3
Format : AAC
Format/Info : Advanced Audio Codec
Format profile : LC
Codec ID : A_AAC
Duration : 1 h 44 min
Bit rate : 120 kb/s
Channel(s) : 2 channels
Channel positions : Front: L R
Sampling rate : 48.0 kHz
Frame rate : 46.875 FPS (1024 spf)
Compression mode : Lossy
Delay relative to video : 9 ms
Stream size : 89.8 MiB (6%)
Title : Commentary
Language : English
Default : No
Forced : No

Text
ID : 4
Format : UTF-8
Codec ID : S_TEXT/UTF8
Codec ID/Info : UTF-8 Plain Text
Duration : 1 h 41 min
Bit rate : 17 b/s
Count of elements : 555
Stream size : 13.3 KiB (0%)
Title : forced
Language : English
Default : Yes
Forced : Yes[/color]

[url=https://www.sparrowpics.com/image/UYe][img]https://www.sparrowpics.com/images/2015/12/10/Screens.png[/img][/url]

[color=red]Click Image To View Full Size[/color]

[URL=https://www.sparrowpics.com/image/lbbWe][IMG]https://www.sparrowpics.com/images/2017/01/20/lbbWe.th.jpg[/IMG][/URL]
[URL=https://www.sparrowpics.com/image/lb4zs][b]Click To View Screenshot[/b][/URL]
[URL=https://www.sparrowpics.com/image/lb5Df][b]Click To View Screenshot[/b][/URL]
[URL=https://www.sparrowpics.com/image/lbN15][b]Click To View Screenshot[/b][/URL]

[/center] ]]>
No.Name.on.the.Bullet.1959.iNTERNAL.BDRip.x264-MANiC http://glodls.to/torrent.php?id=2161915 http://glodls.to/torrent.php?id=2161915 Fri, 20 Jan 2017 02:24:20 +0000 Movies [color=red][b]
No.Name.on.the.Bullet.1959.iNTERNAL.BDRip.x264-MANiC

[/b][/color]


IMDb: http://www.imdb.com/title/tt0052002/


[img]http://ia.media-imdb.com/images/M/MV5BMjAwMDcyODc3OV5BMl5BanBnXkFtZTcwMDEzMTUyMQ@@._V1_SX300.jpg[/img]


[url=https://boltimg.com/image/t52z][img]https://boltimg.com/images/t52z.png[/img][/url]



[color=green][b]
General

(Duration): 1h 17mn
(FileSize): 790 MiB



Audio

(Format): AAC - Advanced Audio Codec
(Codec): AAC LC



Video

(Format): AVC - Advanced Video Codec
(Media): video/H264
(Format): x264
(Resolution): 720x326 px
(AspectRatio): 2.2:1
(FrameRate): 23.976 fps




[/b][/color]


[url=https://boltimg.com/image/tzTE][img]https://boltimg.com/images/tzTE.png[/img][/url]



[color=purple][b](Click to enlarge)[/b][/color]

[url=https://boltimg.com/image/u78dc][img]https://boltimg.com/images/u78dc.th.jpg[/img][/url] [url=https://boltimg.com/image/u7X5u][img]https://boltimg.com/images/u7X5u.th.jpg[/img][/url] [url=https://boltimg.com/image/u7zx3][img]https://boltimg.com/images/u7zx3.th.jpg[/img][/url] [url=https://boltimg.com/image/u704n][img]https://boltimg.com/images/u704n.th.jpg[/img][/url] [url=https://boltimg.com/image/u75lA][img]https://boltimg.com/images/u75lA.th.jpg[/img][/url] [url=https://boltimg.com/image/u7Dek][img]https://boltimg.com/images/u7Dek.th.jpg[/img][/url]

[/center]
]]>
The.Big.Bang.Theory.PROPER.S10E13.720p.HDTV.x264-FLEET[PRiME] http://glodls.to/torrent.php?id=2161914 http://glodls.to/torrent.php?id=2161914 Fri, 20 Jan 2017 02:24:18 +0000 TV The.Big.Bang.Theory.PROPER.S10E13.720p.HDTV.x264-FLEET[PRiME]

[url=https://www.sparrowpics.com/image/LwB][img]https://www.sparrowpics.com/images/2015/12/10/Info.png[/img][/url]

[color=green]Complete name : The.Big.Bang.Theory.PROPER.S10E13.720p.HDTV.x264-FLEET[PRiME].mkv
Format : Matroska
Format version : Version 2
File size : 434 MiB
Duration : 18 min 31 s
Overall bit rate : 3 275 kb/s
Writing application : x264.exe
Writing library : mkv2rls x264-tv version built on 2016.10.12

Video
ID : 1
Format : AVC
Format/Info : Advanced Video Codec
Format profile : High@L4.1
Format settings, CABAC : Yes
Format settings, ReFrames : 5 frames
Codec ID : V_MPEG4/ISO/AVC
Duration : 18 min 31 s
Bit rate : 2 826 kb/s
Width : 1 280 pixels
Height : 718 pixels
Display aspect ratio : 16:9
Frame rate mode : Constant
Frame rate : 23.976 (24000/1001) FPS
Color space : YUV
Chroma subsampling : 4:2:0
Bit depth : 8 bits
Scan type : Progressive
Bits/(Pixel*Frame) : 0.128
Stream size : 375 MiB (86%)
Writing library : x264 core 148 r2744 b97ae06
Encoding settings : cabac=1 / ref=5 / deblock=1:0:0 / analyse=0x3:0x113 / me=hex / subme=8 / psy=1 / psy_rd=1.00:0.00 / mixed_ref=1 / me_range=16 / chroma_me=1 / trellis=2 / 8x8dct=1 / cqm=0 / deadzone=21,11 / fast_pskip=1 / chroma_qp_offset=-2 / threads=22 / lookahead_threads=3 / sliced_threads=0 / nr=0 / decimate=1 / interlaced=0 / bluray_compat=0 / constrained_intra=0 / bframes=3 / b_pyramid=2 / b_adapt=1 / b_bias=0 / direct=3 / weightb=1 / open_gop=0 / weightp=2 / keyint=250 / keyint_min=23 / scenecut=40 / intra_refresh=0 / rc_lookahead=50 / rc=crf / mbtree=1 / crf=18.0 / qcomp=0.60 / qpmin=0 / qpmax=69 / qpstep=4 / ip_ratio=1.40 / aq=1:1.00
Language : English
Default : Yes
Forced : No
Color range : Limited
Matrix coefficients : BT.709

Audio
ID : 2
Format : AC-3
Format/Info : Audio Coding 3
Mode extension : CM (complete main)
Format settings, Endianness : Big
Codec ID : A_AC3
Duration : 18 min 31 s
Bit rate mode : Constant
Bit rate : 384 kb/s
Channel(s) : 6 channels
Channel positions : Front: L C R, Side: L R, LFE
Sampling rate : 48.0 kHz
Frame rate : 31.250 FPS (1536 spf)
Compression mode : Lossy
Stream size : 50.9 MiB (12%)
Language : English
Default : Yes
Forced : No

Text
ID : 3
Format : UTF-8
Codec ID : S_TEXT/UTF8
Codec ID/Info : UTF-8 Plain Text
Title : English
Language : English
Default : No
Forced : No[/color]

[url=https://www.sparrowpics.com/image/UYe][img]https://www.sparrowpics.com/images/2015/12/10/Screens.png[/img][/url]

[color=red]Click Image To View Full Size[/color]

[URL=https://www.sparrowpics.com/image/lbyx1][IMG]https://www.sparrowpics.com/images/2017/01/20/lbyx1.th.jpg[/IMG][/URL]
[URL=https://www.sparrowpics.com/image/lbXYH][b]Click To View Screenshot[/b][/URL]
[URL=https://www.sparrowpics.com/image/lba4T][b]Click To View Screenshot[/b][/URL]
[URL=https://www.sparrowpics.com/image/lbrkB][b]Click To View Screenshot[/b][/URL]

[/center] ]]>
ladyboy xxx Yuri Takes Off Her Dress And Play (19 01 2017) rq mp4 http://glodls.to/torrent.php?id=2161913 http://glodls.to/torrent.php?id=2161913 Fri, 20 Jan 2017 02:19:57 +0000 Adult XXX Audio: aac, 44100 Hz, stereo, s16, 127 kb/s (eng)
Video: h264, yuv420p, 640x360, 1502 kb/s, 30,00 fps(r) (und)

http://imggold.org/7pl2jqia90bj/x.jpeg.html


]]>
No.Name.on.the.Bullet.1959.iNTERNAL.BDRip.x264-MANiC[PRiME] http://glodls.to/torrent.php?id=2161912 http://glodls.to/torrent.php?id=2161912 Fri, 20 Jan 2017 02:18:19 +0000 Movies No.Name.on.the.Bullet.1959.iNTERNAL.BDRip.x264-MANiC[PRiME]

ImDb: [URL]http://www.imdb.com/title/tt0052002[/URL]

[url=https://www.sparrowpics.com/image/LwB][img]https://www.sparrowpics.com/images/2015/12/10/Info.png[/img][/url]

[color=green]Complete name : no.name.on.the.bullet.1959.internal.bdrip.x264-manic[PRiME].mkv
Format : Matroska
Format version : Version 4 / Version 2
File size : 790 MiB
Duration : 1 h 17 min
Overall bit rate : 1 433 kb/s
Encoded date : UTC 2017-01-14 04:17:29
Writing application : mkvmerge v8.3.0 ('Over the Horizon') 64bit
Writing library : libebml v1.3.1 + libmatroska v1.4.2

Video
ID : 1
Format : AVC
Format/Info : Advanced Video Codec
Format profile : High@L3.1
Format settings, CABAC : Yes
Format settings, ReFrames : 5 frames
Codec ID : V_MPEG4/ISO/AVC
Duration : 1 h 17 min
Bit rate : 1 339 kb/s
Width : 720 pixels
Height : 326 pixels
Display aspect ratio : 2.2:1
Frame rate mode : Constant
Frame rate : 23.976 (24000/1001) FPS
Color space : YUV
Chroma subsampling : 4:2:0
Bit depth : 8 bits
Scan type : Progressive
Bits/(Pixel*Frame) : 0.238
Stream size : 738 MiB (93%)
Writing library : x264 core 148 r2705 3f5ed56
Encoding settings : cabac=1 / ref=5 / deblock=1:-1:-1 / analyse=0x3:0x113 / me=umh / subme=8 / psy=1 / psy_rd=1.00:0.15 / mixed_ref=1 / me_range=16 / chroma_me=1 / trellis=2 / 8x8dct=1 / cqm=0 / deadzone=21,11 / fast_pskip=1 / chroma_qp_offset=-3 / threads=10 / lookahead_threads=1 / sliced_threads=0 / nr=0 / decimate=1 / interlaced=0 / bluray_compat=0 / constrained_intra=0 / bframes=3 / b_pyramid=2 / b_adapt=2 / b_bias=0 / direct=3 / weightb=1 / open_gop=0 / weightp=2 / keyint=250 / keyint_min=23 / scenecut=40 / intra_refresh=0 / rc_lookahead=50 / rc=crf / mbtree=1 / crf=19.0 / qcomp=0.60 / qpmin=0 / qpmax=69 / qpstep=4 / ip_ratio=1.40 / aq=1:1.00
Language : English
Default : Yes
Forced : No
Color range : Limited
Matrix coefficients : BT.709

Audio
ID : 2
Format : AAC
Format/Info : Advanced Audio Codec
Format profile : LC
Codec ID : A_AAC
Duration : 1 h 17 min
Bit rate : 92.2 kb/s
Channel(s) : 1 channel
Channel positions : Front: C
Sampling rate : 48.0 kHz
Frame rate : 46.875 FPS (1024 spf)
Compression mode : Lossy
Delay relative to video : 9 ms
Stream size : 50.8 MiB (6%)
Language : English
Default : Yes
Forced : No

Menu
00:00:00.000 : en:00:00:00.000
00:08:12.867 : en:00:08:12.867
00:19:34.465 : en:00:19:34.465
00:24:36.433 : en:00:24:36.433
00:36:00.158 : en:00:36:00.158
00:45:40.446 : en:00:45:40.446
00:55:00.130 : en:00:55:00.130
01:03:22.799 : en:01:03:22.799
01:16:25.664 : en:01:16:25.664[/color]

[url=https://www.sparrowpics.com/image/UYe][img]https://www.sparrowpics.com/images/2015/12/10/Screens.png[/img][/url]

[color=red]Click Image To View Full Size[/color]

[URL=https://www.sparrowpics.com/image/lbiDX][IMG]https://www.sparrowpics.com/images/2017/01/20/lbiDX.th.jpg[/IMG][/URL]
[URL=https://www.sparrowpics.com/image/lbA1M][b]Click To View Screenshot[/b][/URL]
[URL=https://www.sparrowpics.com/image/lbdTV][b]Click To View Screenshot[/b][/URL]
[URL=https://www.sparrowpics.com/image/lbpld][b]Click To View Screenshot[/b][/URL]

[/center] ]]>
ladyboy xxx Lovely Too Strokes Her Cock (20 01 2017) rq mp4 http://glodls.to/torrent.php?id=2161911 http://glodls.to/torrent.php?id=2161911 Fri, 20 Jan 2017 02:16:23 +0000 Adult XXX Audio: aac, 44100 Hz, stereo, s16, 127 kb/s (eng)
Video: h264, yuv420p, 640x360, 1500 kb/s, 30,00 fps(r) (und)

http://imgclick.net/2izih9aetdgf/l.jpeg.html


]]>
Alison - The Calling http://glodls.to/torrent.php?id=2161910 http://glodls.to/torrent.php?id=2161910 Fri, 20 Jan 2017 02:12:28 +0000 Adult XXX
[b]Date[/b]: 20.01.2017
[b]Cast[/b]: Alison
[b]Genre[/b]: all sex
[b]Name[/b]: The Calling


[b]Video[/b]: 1920x1080 (16:9), 29.970 fps
[b]Audio[/b]: AAC, 128 Kbps, 2 ch, 48 KHz
[b]Format[/b]: mp4
[b]Duration[/b]: 00:21:25
]]>
shemale xxx Stunning Diana Love Struts Her Stuff! (17 01 2017) rq mp4 http://glodls.to/torrent.php?id=2161909 http://glodls.to/torrent.php?id=2161909 Fri, 20 Jan 2017 02:10:00 +0000 Adult XXX Audio: aac, 44100 Hz, 2 channels, s16, 192 kb/s (und)
Video: h264, yuv420p, 854x480, 2023 kb/s, 29,97 fps(r) (und)

https://imgdrive.net/img-588170bb02d91.html

]]>
The.Good.Place.S01E12.720p.HDTV.x264-FLEET[PRiME] http://glodls.to/torrent.php?id=2161908 http://glodls.to/torrent.php?id=2161908 Fri, 20 Jan 2017 02:08:29 +0000 TV The.Good.Place.S01E12.720p.HDTV.x264-FLEET[PRiME]

[url=https://www.sparrowpics.com/image/LwB][img]https://www.sparrowpics.com/images/2015/12/10/Info.png[/img][/url]

[color=green]Complete name : The.Good.Place.S01E12.720p.HDTV.x264-FLEET[PRiME].mkv
Format : Matroska
Format version : Version 2
File size : 807 MiB
Duration : 44 min 48 s
Overall bit rate : 2 518 kb/s
Writing application : x264.exe
Writing library : mkv2rls x264-tv version built on 2016.10.12

Video
ID : 1
Format : AVC
Format/Info : Advanced Video Codec
Format profile : High@L4.1
Format settings, CABAC : Yes
Format settings, ReFrames : 5 frames
Codec ID : V_MPEG4/ISO/AVC
Duration : 44 min 48 s
Bit rate : 2 083 kb/s
Width : 1 280 pixels
Height : 718 pixels
Display aspect ratio : 16:9
Frame rate mode : Constant
Frame rate : 23.976 (24000/1001) FPS
Color space : YUV
Chroma subsampling : 4:2:0
Bit depth : 8 bits
Scan type : Progressive
Bits/(Pixel*Frame) : 0.095
Stream size : 668 MiB (83%)
Writing library : x264 core 148 r2744 b97ae06
Encoding settings : cabac=1 / ref=5 / deblock=1:-2:-2 / analyse=0x3:0x113 / me=hex / subme=8 / psy=1 / psy_rd=1.05:0.00 / mixed_ref=1 / me_range=16 / chroma_me=1 / trellis=2 / 8x8dct=1 / cqm=0 / deadzone=21,11 / fast_pskip=1 / chroma_qp_offset=-2 / threads=22 / lookahead_threads=3 / sliced_threads=0 / nr=0 / decimate=1 / interlaced=0 / bluray_compat=0 / constrained_intra=0 / bframes=3 / b_pyramid=2 / b_adapt=1 / b_bias=0 / direct=3 / weightb=1 / open_gop=0 / weightp=2 / keyint=250 / keyint_min=23 / scenecut=40 / intra_refresh=0 / rc_lookahead=50 / rc=crf / mbtree=1 / crf=18.0 / qcomp=0.60 / qpmin=0 / qpmax=69 / qpstep=4 / ip_ratio=1.40 / aq=1:0.70
Language : English
Default : Yes
Forced : No

Audio
ID : 2
Format : AC-3
Format/Info : Audio Coding 3
Mode extension : CM (complete main)
Format settings, Endianness : Big
Codec ID : A_AC3
Duration : 44 min 48 s
Bit rate mode : Constant
Bit rate : 384 kb/s
Channel(s) : 6 channels
Channel positions : Front: L C R, Side: L R, LFE
Sampling rate : 48.0 kHz
Frame rate : 31.250 FPS (1536 spf)
Compression mode : Lossy
Stream size : 123 MiB (15%)
Language : English
Default : Yes
Forced : No

Text
ID : 3
Format : UTF-8
Codec ID : S_TEXT/UTF8
Codec ID/Info : UTF-8 Plain Text
Title : English
Language : English
Default : No
Forced : No[/color]

[url=https://www.sparrowpics.com/image/UYe][img]https://www.sparrowpics.com/images/2015/12/10/Screens.png[/img][/url]

[color=red]Click Image To View Full Size[/color]

[URL=https://www.sparrowpics.com/image/lbsb9][IMG]https://www.sparrowpics.com/images/2017/01/20/lbsb9.th.jpg[/IMG][/URL]
[URL=https://www.sparrowpics.com/image/lbukb][b]Click To View Screenshot[/b][/URL]
[URL=https://www.sparrowpics.com/image/lb0W3][b]Click To View Screenshot[/b][/URL]
[URL=https://www.sparrowpics.com/image/lbTyK][b]Click To View Screenshot[/b][/URL]

[/center] ]]>
shemale xxx Paulina Garcia Fingers Herself! (19 01 2017) rq mp4 http://glodls.to/torrent.php?id=2161907 http://glodls.to/torrent.php?id=2161907 Fri, 20 Jan 2017 02:07:05 +0000 Adult XXX Audio: aac, 44100 Hz, 2 channels, s16, 192 kb/s (und)
Video: h264, yuv420p, 854x480, 2017 kb/s, 29,97 fps(r) (und)

https://imgtaxi.com/img-5881700d930bf.html

]]>
The.Good.Place.S01E12.HDTV.x264-FLEET[PRiME] http://glodls.to/torrent.php?id=2161906 http://glodls.to/torrent.php?id=2161906 Fri, 20 Jan 2017 02:06:34 +0000 TV The.Good.Place.S01E12.HDTV.x264-FLEET[PRiME]

[url=https://www.sparrowpics.com/image/LwB][img]https://www.sparrowpics.com/images/2015/12/10/Info.png[/img][/url]

[color=green]Complete name : The.Good.Place.S01E12.HDTV.x264-FLEET[PRiME].mkv
Format : Matroska
Format version : Version 2
File size : 266 MiB
Duration : 44 min 48 s
Overall bit rate : 829 kb/s
Writing application : x264.exe
Writing library : mkv2rls x264-tv version built on 2016.10.12

Video
ID : 1
Format : AVC
Format/Info : Advanced Video Codec
Format profile : High@L3.1
Format settings, CABAC : Yes
Format settings, ReFrames : 5 frames
Codec ID : V_MPEG4/ISO/AVC
Duration : 44 min 48 s
Width : 720 pixels
Height : 402 pixels
Display aspect ratio : 16:9
Frame rate mode : Constant
Frame rate : 23.976 (24000/1001) FPS
Color space : YUV
Chroma subsampling : 4:2:0
Bit depth : 8 bits
Scan type : Progressive
Writing library : x264 core 148 r2744 b97ae06
Encoding settings : cabac=1 / ref=5 / deblock=1:0:0 / analyse=0x3:0x113 / me=hex / subme=8 / psy=1 / psy_rd=1.00:0.00 / mixed_ref=1 / me_range=16 / chroma_me=1 / trellis=2 / 8x8dct=1 / cqm=0 / deadzone=21,11 / fast_pskip=1 / chroma_qp_offset=-2 / threads=13 / lookahead_threads=2 / sliced_threads=0 / nr=0 / decimate=1 / interlaced=0 / bluray_compat=0 / constrained_intra=0 / bframes=3 / b_pyramid=2 / b_adapt=1 / b_bias=0 / direct=3 / weightb=1 / open_gop=0 / weightp=2 / keyint=250 / keyint_min=23 / scenecut=40 / intra_refresh=0 / rc_lookahead=50 / rc=crf / mbtree=1 / crf=19.0 / qcomp=0.60 / qpmin=0 / qpmax=69 / qpstep=4 / ip_ratio=1.40 / aq=1:1.00
Language : English
Default : Yes
Forced : No
Color range : Limited
Matrix coefficients : BT.709

Audio
ID : 2
Format : AAC
Format/Info : Advanced Audio Codec
Format profile : LC
Codec ID : A_AAC
Duration : 44 min 48 s
Channel(s) : 2 channels
Channel positions : Front: L R
Sampling rate : 48.0 kHz
Frame rate : 46.875 FPS (1024 spf)
Compression mode : Lossy
Language : English
Default : Yes
Forced : No[/color]

[url=https://www.sparrowpics.com/image/UYe][img]https://www.sparrowpics.com/images/2015/12/10/Screens.png[/img][/url]

[color=red]Click Image To View Full Size[/color]

[URL=https://www.sparrowpics.com/image/lbITZ][IMG]https://www.sparrowpics.com/images/2017/01/20/lbITZ.th.jpg[/IMG][/URL]
[URL=https://www.sparrowpics.com/image/lbPex][b]Click To View Screenshot[/b][/URL]
[URL=https://www.sparrowpics.com/image/lbRwN][b]Click To View Screenshot[/b][/URL]
[URL=https://www.sparrowpics.com/image/lboYY][b]Click To View Screenshot[/b][/URL]

[/center] ]]>
[ShemaleYum] Sexy Slim Jani & Her Stunning Butt! (19 01 2017) rq mp4 http://glodls.to/torrent.php?id=2161890 http://glodls.to/torrent.php?id=2161890 Fri, 20 Jan 2017 02:00:21 +0000 Adult XXX Audio: aac, 44100 Hz, stereo, s16, 128 kb/s (eng)
Video: h264, yuv420p, 854x480, 3003 kb/s, 30,00 fps(r) (eng)

http://imgtornado.com/img-5881c28ee981f.html

]]>
The Great Indoors S01E11 720p HDTV x264-FLEET http://glodls.to/torrent.php?id=2161862 http://glodls.to/torrent.php?id=2161862 Fri, 20 Jan 2017 02:00:08 +0000 TV http://www.tvrage.com/schedule.php?show_yesterday=1. ]]> The Great Indoors S01E11 HDTV x264-FLEET http://glodls.to/torrent.php?id=2161861 http://glodls.to/torrent.php?id=2161861 Fri, 20 Jan 2017 02:00:07 +0000 TV http://www.tvrage.com/schedule.php?show_yesterday=1. ]]>