GloDLS.to - Download Movies, TV, Games and Other Torrents Free RSS 2.0enGloDLS.to - Download Movies, TV, Games and Other Torrents FreeGloDLS.to - Download Movies, TV, Games and Other Torrents Free RSS Feedhttp://glodls.toCopyright GloDLS.to - Download Movies, TV, Games and Other Torrents FreeWed, 23 Aug 2017 14:50:11 +0100 FantasyMassage - Brenna Sparks (Smoking Hot Report) NEW 23 August 2017 http://glodls.to/torrent.php?id=2731260 http://glodls.to/torrent.php?id=2731260 Wed, 23 Aug 2017 13:49:16 +0100 Adult XXX
http://imggold.org/6uj4wyoh7x7r/fant.jpg.html

http://imgtornado.com/img-599d79941dbed.html

Ryan McLane is interviewing his buddy's smoking hot girlfriend Brenna Sparks for a job. He likes what he's seeing on her resume and her experience is perfect for the job, but another employee Susan is due for a promotion. It wouldn't be right to give Brenna the job and make Susan report to her. Unless Brenna can demonstrate skills that will blow him away, he won't be able to give her the job. Brenna chirps that her exceptional skill is giving great massages. She describes her specialty as a full body massage. Ryan has a big crush on her, but she's already dating his friend. He's willing to give her a shot in exchange for a full body massage...
Categories Pussy Licking, Big Tits, Asian, Tattoo, Blowjob, Fingering, Ball Sucking, Ball Licking, Massage, Ass ]]>
Russian Slave Fucked By The Military http://glodls.to/torrent.php?id=2731259 http://glodls.to/torrent.php?id=2731259 Wed, 23 Aug 2017 13:48:00 +0100 Adult XXX
Resolution - 480*272
Size - 552 MB
Runtime - 56 Min 59 Sec
File Formet - MPG,Best Player To Play ( VLC )

Sample Images

http://socialporn.online/2017/08/23/russian-slave-fucked-by-the-military/
http://socialporn.online/2017/08/23/russian-slave-fucked-by-the-military-2/ ]]>
EroticaX - Marica Hase, Abella Danger (Pure Desire) NEW 23 August 2017 http://glodls.to/torrent.php?id=2731258 http://glodls.to/torrent.php?id=2731258 Wed, 23 Aug 2017 13:47:53 +0100 Adult XXX
http://imggold.org/mavr08z88a47/ero.jpg.html

http://imgtornado.com/img-599d799320f99.html

Marica is into women. Loves how they feel, their sensuality, their wonderful curses, and softness. She loves their breasts, their soft, wet, warm pussies. But she likes good, hard cock too. Loves how it can pound into her, and gets her off in a way a woman can't. But all that creates quite a dilemma. Plus, she's just started seeing a new guy, whom she loves and adores, but doesn't want her girlfriend, Abella to be left out. So she sets up a meeting, to see if they're compatible, with the ulterior motive of having a three-way. It's the perfect combination for her dick and pussy at the same time. Well, things go even more amazing than she ever dreamed, as she and Abella tackle her new boyfriend James for a three-way round of cock sucking, pussy eating, and ball licking. Marica can not be more delighted, going from woman to man at the same time.
Categories Cumshot, Brunette, Blowjob, 69, Threesome, Cum on tits, Handjob, Asian, Bush, FaceSitting ]]>
DollsPorn - Leksi Fox (Beautiful Sexdoll Is Feeling Horny) NEW 23 August 2017 http://glodls.to/torrent.php?id=2731257 http://glodls.to/torrent.php?id=2731257 Wed, 23 Aug 2017 13:46:48 +0100 Adult XXX http://imggold.org/82bx7gsfp9m6/dol.jpg.html

http://imgtornado.com/img-599d79925c43a.html

DollsPorn - Leksi Fox (Beautiful Sexdoll Is Feeling Horny) NEW 23 August 2017

Tags licking, brunette, facial, shaven ]]>
Russian Sunny and Brittney http://glodls.to/torrent.php?id=2731256 http://glodls.to/torrent.php?id=2731256 Wed, 23 Aug 2017 13:46:35 +0100 Adult XXX
Resolution - 544*408
Size - 107 MB
Runtime - 30 Min 12 Sec
File Formet - MP4,Best Player To Play ( VLC )

Sample Images

http://socialporn.online/2017/08/23/russian-sunny-and-brittney/
http://socialporn.online/2017/08/23/russian-sunny-and-brittney-2/
]]>
BrazzersExxtra - Stacy Jay (Deeper In The Housekeeper) NEW 23 August 2017 http://glodls.to/torrent.php?id=2731255 http://glodls.to/torrent.php?id=2731255 Wed, 23 Aug 2017 13:45:44 +0100 Adult XXX
http://imggold.org/tfpx3ipdwere/braz.jpg.html

http://imgtornado.com/img-599d7991a5cfe.html

Markus' wife decided that they needed a housekeeper to help tidy up around the house. Markus isn't totally sure why this is necessary, but changes his mind when he sees Stacy's unique method of cleaning. Turns out she likes to strip down and coat up her luscious tits with soap while scrubbing. Markus can't take the teasing anymore, and decides to dip his dong into Stacy's tight pussy. Markus decides to go for a little multitasking, soaping up Stacy and his entire house in the midst of their fuckfest.
Categories
Big Tits Blowjob (POV) Brunette Cheating Couples Fantasies Doggystyle (POV) Latina Squirt Uniform Work Fantasies ]]>
BangBus - Kelsi Monroe (Kelsis Reverse pt 3) NEW 23 August 2017 http://glodls.to/torrent.php?id=2731254 http://glodls.to/torrent.php?id=2731254 Wed, 23 Aug 2017 13:44:36 +0100 Adult XXX
http://imggold.org/sc2u064whvzc/BANGB.jpg.html

http://imgtornado.com/img-599d7990abdcf.html

Kelsi gets her body painted before we go out on the hunt. She came over because she’s horny and ready for multiple cocks. She quickly find and jumps on the first guy she finds. She uses her big ass to bounce in on his cock until he made her cum. We end up dropping the guy off at a random street. The second guy licks her pussy before he fucking her. He also ends up getting dumped hahaha
Tags:Big Ass, Big Booty, Blowjob, Brunette, Cow Girl, Cum In Mouth, Cum Shot, Doggystyle, Hardcore, Latina, Missionary, Pornstar, Riding, Vaginal ]]>
[PornDoePedia] Kama Sutra sex ed tutorial with real life porn couple Alexa Tomas & Joel (23 08 2017) rq mp4 http://glodls.to/torrent.php?id=2731253 http://glodls.to/torrent.php?id=2731253 Wed, 23 Aug 2017 13:43:51 +0100 Adult XXX Audio: aac, 44100 Hz, stereo, s16, 128 kb/s (eng)
Video: h264, yuv420p, 854x480, 1999 kb/s, 29,97 fps(r) (und)

https://imgdrive.net/img-599d863d92e04.html

]]>
21Naturals - Doris Ivy aka Gina Gerson (Hot Pink) NEW 23 August 2017 http://glodls.to/torrent.php?id=2731252 http://glodls.to/torrent.php?id=2731252 Wed, 23 Aug 2017 13:43:35 +0100 Adult XXX
http://imggold.org/j6ysdlraryt3/21NAT.jpg.html

http://imgtornado.com/img-599d798fa4d9a.html

Cute blonde Doris Ivy takes a quick sunbath in the pool when Thomas interrupts her with kisses and sweet caresses. She can't resist his charm and starts to suck his big cock before he takes her hot pink pussy. There's nothing hotter than a summer time fuck by the pool!
Categories blowjob, big dick, babes, blonde, handjobs, one on one, cumshot, natural tits, small tits ]]>
Shooter.S02E06.iNTERNAL.720p.WEBRip.x264-STRiFE[ettv] http://glodls.to/torrent.php?id=2731251 http://glodls.to/torrent.php?id=2731251 Wed, 23 Aug 2017 13:43:30 +0100 TV Et High-Definition TV Shows


Shooter.S02E06.iNTERNAL.720p.WEBRip.x264-STRiFE


[Format]: Matroska
[Duration]: 42mn 20s
[Resolution]: 1 280 x 720 pixels
[Display aspect ratio]: 16:9
[Frame rate mode]: Constant
[Frame rate]: 23.976 fps


[color=green][b]#EtHD -> To avoid fakes, ALWAYS check that the torrent was added by EtHD[/b][/color]




[color=green][b]To keep us going Support us by donating Bitcoin: 3MDamEmgKepqagtQe9eEdQ3NCrWEWjhoL5[/b][/color]

[b]Screens...[/b]
[url=https://extraimage.net/image/TjRN][img]https://extraimage.net/images/2017/08/23/701f469a0d8c1ddc23a9bbd8fcc57e57.th.jpg[/img][/url] [url=https://extraimage.net/image/TjRT][img]https://extraimage.net/images/2017/08/23/8c09d887c03d74199232db30a4706284.th.jpg[/img][/url]
[url=https://extraimage.net/image/TjRj][img]https://extraimage.net/images/2017/08/23/47499e8f680d6f8e65693f21a83e8df8.th.jpg[/img][/url] [url=https://extraimage.net/image/TjRn][img]https://extraimage.net/images/2017/08/23/b010f6e08fa09716edb5e28b8bf696f1.th.jpg[/img][/url] ]]>
Russian swingers http://glodls.to/torrent.php?id=2731250 http://glodls.to/torrent.php?id=2731250 Wed, 23 Aug 2017 13:42:12 +0100 Adult XXX
Resolution - 480*272
Size - 211 MB
Runtime - 22 Min 54 Sec
File Formet - MPG,Best Player To Play ( VLC )

Sample Images

http://socialporn.online/2017/08/23/russian-swingers/
http://socialporn.online/2017/08/23/russian-swingers-2/
]]>
[PornDoePedia] How to make your own sextape funny tutorial with Sicilia and Andy Stone (23 08 2017) rq mp4 http://glodls.to/torrent.php?id=2731249 http://glodls.to/torrent.php?id=2731249 Wed, 23 Aug 2017 13:40:32 +0100 Adult XXX Audio: aac, 44100 Hz, stereo, s16, 128 kb/s (eng)
Video: h264, yuv420p, 854x480, 2000 kb/s, 29,97 fps(r) (und)

https://img.yt/img-599d85c155a6c.html

]]>
[PornDoePedia] Hot sex guide to roleplay with feisty British babe Tina Kay & Pablo Ferrari (23 08 2017) rq mp4 http://glodls.to/torrent.php?id=2731248 http://glodls.to/torrent.php?id=2731248 Wed, 23 Aug 2017 13:37:30 +0100 Adult XXX Audio: aac, 44100 Hz, stereo, s16, 128 kb/s (eng)
Video: h264, yuv420p, 854x480, 2000 kb/s, 29,97 fps(r) (und)

http://imgjazz.com/img-599d850467c15.html

]]>
Haunted.Towns.S01E02.720p.HDTV.x264-CURIOSITY http://glodls.to/torrent.php?id=2731247 http://glodls.to/torrent.php?id=2731247 Wed, 23 Aug 2017 13:36:41 +0100 TV
[url=https://www.sparrowpics.com/image/kbFon][img]https://www.sparrowpics.com/images/2017/07/04/kbFon.png[/img][/url]

[b]Complete name : Haunted.Towns.S01E02.720p.HDTV.x264-CURIOSITY.mkv
Format : Matroska
Format version : Version 4 / Version 2
File size : 963 MiB
Duration : 42 min 32 s
Overall bit rate : 3 166 kb/s
Encoded date : UTC 2017-08-23 12:12:44
Writing application : mkvmerge v6.6.0 ('The Edge Of The In Between') built on Dec 1 2013 17:55:00
Writing library : libebml v1.3.0 + libmatroska v1.4.1

Video
ID : 1
Format : AVC
Format/Info : Advanced Video Codec
Format profile : High@L4.1
Format settings, CABAC : Yes
Format settings, ReFrames : 5 frames
Codec ID : V_MPEG4/ISO/AVC
Duration : 42 min 32 s
Bit rate : 2 719 kb/s
Width : 1 280 pixels
Height : 720 pixels
Display aspect ratio : 16:9
Frame rate mode : Constant
Frame rate : 59.940 (60000/1001) FPS
Color space : YUV
Chroma subsampling : 4:2:0
Bit depth : 8 bits
Scan type : Progressive
Bits/(Pixel*Frame) : 0.049
Stream size : 827 MiB (86%)
Writing library : x264 core 152 r2851 ba24899
Encoding settings : cabac=1 / ref=5 / deblock=1:-2:-2 / analyse=0x3:0x113 / me=hex / subme=8 / psy=1 / psy_rd=1.00:0.00 / mixed_ref=1 / me_range=16 / chroma_me=1 / trellis=2 / 8x8dct=1 / cqm=0 / deadzone=21,11 / fast_pskip=1 / chroma_qp_offset=-2 / threads=22 / lookahead_threads=3 / sliced_threads=0 / nr=0 / decimate=1 / interlaced=0 / bluray_compat=0 / constrained_intra=0 / bframes=3 / b_pyramid=2 / b_adapt=1 / b_bias=0 / direct=3 / weightb=1 / open_gop=0 / weightp=2 / keyint=600 / keyint_min=60 / scenecut=40 / intra_refresh=0 / rc_lookahead=50 / rc=crf / mbtree=1 / crf=20.0 / qcomp=0.60 / qpmin=0 / qpmax=69 / qpstep=4 / ip_ratio=1.40 / aq=1:1.00
Default : Yes
Forced : No
Color range : Limited
Matrix coefficients : BT.709

Audio
ID : 2
Format : AC-3
Format/Info : Audio Coding 3
Format settings, Endianness : Big
Codec ID : A_AC3
Duration : 42 min 32 s
Bit rate mode : Constant
Bit rate : 384 kb/s
Channel(s) : 6 channels
Channel positions : Front: L C R, Side: L R, LFE
Sampling rate : 48.0 kHz
Frame rate : 31.250 FPS (1536 spf)
Bit depth : 16 bits
Compression mode : Lossy
Stream size : 117 MiB (12%)
Language : English
Service kind : Complete Main
Default : Yes
Forced : No[/b]

[url=https://www.sparrowpics.com/image/kbJ5y][img]https://www.sparrowpics.com/images/2017/07/04/kbJ5y.png[/img][/url]

[URL=https://tv.sparrowpics.com/image/KF8UY][IMG]https://tv.sparrowpics.com/images/2017/08/23/KF8UY.th.jpg[/IMG][/URL]

[URL=https://tv.sparrowpics.com/image/KF9OT][b]Click To View Screenshot[/b][/URL]

[URL=https://tv.sparrowpics.com/image/KFHMb][b]Click To View Screenshot[/b][/URL]

[URL=https://tv.sparrowpics.com/image/KFKr4][b]Click To View Screenshot[/b][/URL][/center] ]]>
Haunted.Towns.S01E01.720p.HDTV.x264-CURIOSITY http://glodls.to/torrent.php?id=2731246 http://glodls.to/torrent.php?id=2731246 Wed, 23 Aug 2017 13:34:57 +0100 TV
[url=https://www.sparrowpics.com/image/kbFon][img]https://www.sparrowpics.com/images/2017/07/04/kbFon.png[/img][/url]

[b]Complete name : Haunted.Towns.S01E01.720p.HDTV.x264-CURIOSITY.mkv
Format : Matroska
Format version : Version 4 / Version 2
File size : 1.03 GiB
Duration : 42 min 32 s
Overall bit rate : 3 459 kb/s
Encoded date : UTC 2017-08-23 11:34:56
Writing application : mkvmerge v6.6.0 ('The Edge Of The In Between') built on Dec 1 2013 17:55:00
Writing library : libebml v1.3.0 + libmatroska v1.4.1

Video
ID : 1
Format : AVC
Format/Info : Advanced Video Codec
Format profile : High@L4.1
Format settings, CABAC : Yes
Format settings, ReFrames : 5 frames
Codec ID : V_MPEG4/ISO/AVC
Duration : 42 min 32 s
Bit rate : 3 006 kb/s
Width : 1 280 pixels
Height : 720 pixels
Display aspect ratio : 16:9
Frame rate mode : Constant
Frame rate : 59.940 (60000/1001) FPS
Color space : YUV
Chroma subsampling : 4:2:0
Bit depth : 8 bits
Scan type : Progressive
Bits/(Pixel*Frame) : 0.054
Stream size : 915 MiB (87%)
Writing library : x264 core 152 r2851 ba24899
Encoding settings : cabac=1 / ref=5 / deblock=1:-2:-2 / analyse=0x3:0x113 / me=hex / subme=8 / psy=1 / psy_rd=1.00:0.00 / mixed_ref=1 / me_range=16 / chroma_me=1 / trellis=2 / 8x8dct=1 / cqm=0 / deadzone=21,11 / fast_pskip=1 / chroma_qp_offset=-2 / threads=22 / lookahead_threads=3 / sliced_threads=0 / nr=0 / decimate=1 / interlaced=0 / bluray_compat=0 / constrained_intra=0 / bframes=3 / b_pyramid=2 / b_adapt=1 / b_bias=0 / direct=3 / weightb=1 / open_gop=0 / weightp=2 / keyint=600 / keyint_min=60 / scenecut=40 / intra_refresh=0 / rc_lookahead=50 / rc=crf / mbtree=1 / crf=20.0 / qcomp=0.60 / qpmin=0 / qpmax=69 / qpstep=4 / ip_ratio=1.40 / aq=1:1.00
Default : Yes
Forced : No
Color range : Limited
Matrix coefficients : BT.709

Audio
ID : 2
Format : AC-3
Format/Info : Audio Coding 3
Format settings, Endianness : Big
Codec ID : A_AC3
Duration : 42 min 32 s
Bit rate mode : Constant
Bit rate : 384 kb/s
Channel(s) : 6 channels
Channel positions : Front: L C R, Side: L R, LFE
Sampling rate : 48.0 kHz
Frame rate : 31.250 FPS (1536 spf)
Bit depth : 16 bits
Compression mode : Lossy
Stream size : 117 MiB (11%)
Language : English
Service kind : Complete Main
Default : Yes
Forced : No[/b]

[url=https://www.sparrowpics.com/image/kbJ5y][img]https://www.sparrowpics.com/images/2017/07/04/kbJ5y.png[/img][/url]

[URL=https://tv.sparrowpics.com/image/KDiBy][IMG]https://tv.sparrowpics.com/images/2017/08/23/KDiBy.th.jpg[/IMG][/URL]

[URL=https://tv.sparrowpics.com/image/KDjT3][b]Click To View Screenshot[/b][/URL]

[URL=https://tv.sparrowpics.com/image/KDuDf][b]Click To View Screenshot[/b][/URL]

[URL=https://tv.sparrowpics.com/image/KDG2r][b]Click To View Screenshot[/b][/URL][/center] ]]>
[PornDoePedia] Hot guide to anal sex with sexy Romanian Julia De Lucia & Pablo Ferrari (23 08 2017) rq mp4 http://glodls.to/torrent.php?id=2731245 http://glodls.to/torrent.php?id=2731245 Wed, 23 Aug 2017 13:34:30 +0100 Adult XXX Audio: aac, 44100 Hz, stereo, s16, 128 kb/s (eng)
Video: h264, yuv420p, 854x480, 1999 kb/s, 29,97 fps(r) (und)

http://www.pixsense.net/site/v/2695175#51&2695175


]]>
[PornDoePedia] Funny guide to perfect threesome with hot Spanish babe Julia Roca & couple (23 08 2017) rq mp4 http://glodls.to/torrent.php?id=2731244 http://glodls.to/torrent.php?id=2731244 Wed, 23 Aug 2017 13:30:56 +0100 Adult XXX Audio: aac, 44100 Hz, stereo, s16, 128 kb/s (eng)
Video: h264, yuv420p, 854x480, 2000 kb/s, 29,97 fps(r) (und)

http://imgclick.net/03jvhxq7yktl/p.jpeg.html


]]>
Vixen - My European Assistant - Angela White [720p] mp4 http://glodls.to/torrent.php?id=2731243 http://glodls.to/torrent.php?id=2731243 Wed, 23 Aug 2017 13:29:01 +0100 Adult XXX
2.36 GB

Screens

[url]http://img.img-central.com/image/9lB9G[/url]
[url]http://img.img-central.com/image/9lJgs[/url]
[url]http://img.img-central.com/image/9lTxy[/url]
[url]http://img.img-central.com/image/9l5b1[/url]

[img]https://s3.postimg.org/mdyw3bxo3/Vixen_1.jpg[/img]
]]>
Russian teen couple fuck hard http://glodls.to/torrent.php?id=2731242 http://glodls.to/torrent.php?id=2731242 Wed, 23 Aug 2017 13:24:21 +0100 Adult XXX
Resolution - 480*272
Size - 200 MB
Runtime - 21 Min 45 Sec
File Formet - MPG,Best Player To Play ( VLC )

Sample Images

http://socialporn.online/2017/08/23/russian-teen-couple-fuck-hard/
http://socialporn.online/2017/08/23/russian-teen-couple-fuck-hard-2/ ]]>
Bang! Real Teens - Lilly Ford Goes To Sea And Fucks Her Captain [720p] mp4 http://glodls.to/torrent.php?id=2731241 http://glodls.to/torrent.php?id=2731241 Wed, 23 Aug 2017 13:22:33 +0100 Adult XXX
1.45 GB

Screens

[url]http://img.img-central.com/image/9lftg[/url]
[url]http://img.img-central.com/image/9lPCw[/url]
[url]http://img.img-central.com/image/9lXru[/url]
[url]http://img.img-central.com/image/9lzY2[/url]

[img]https://s3.postimg.org/laerrdd0z/Bang_1.jpg[/img]
]]>
Russian Teen Pornstar Takes Both Of Big Toy And Big Dick HD Anal http://glodls.to/torrent.php?id=2731240 http://glodls.to/torrent.php?id=2731240 Wed, 23 Aug 2017 13:22:11 +0100 Adult XXX
Resolution - 480*272
Size - 229 MB
Runtime - 24 Min 50 Sec
File Formet - MPG,Best Player To Play ( VLC )

Sample Images

http://socialporn.online/2017/08/23/russian-teen-pornstar-takes-both-of-big-toy-and-big-dick-hd-anal/
http://socialporn.online/2017/08/23/russian-teen-pornstar-takes-both-of-big-toy-and-big-dick-hd-anal-2/ ]]>
Sexual Healing Massage http://glodls.to/torrent.php?id=2731239 http://glodls.to/torrent.php?id=2731239 Wed, 23 Aug 2017 13:20:06 +0100 Adult XXX
Resolution - 480*272
Size - 318 MB
Runtime - 34 Min 35 Sec
File Formet - MPG,Best Player To Play ( VLC )

Sample Images

http://socialporn.online/2017/08/23/sexual-healing-massage/
http://socialporn.online/2017/08/23/sexual-healing-massage-2/
]]>
srpski grupnjak 3 serbian http://glodls.to/torrent.php?id=2731238 http://glodls.to/torrent.php?id=2731238 Wed, 23 Aug 2017 13:16:43 +0100 Adult XXX
Resolution - 544*408
Size - 193 MB
Runtime - 54 Min 13 Sec
File Formet - MP4,Best Player To Play ( VLC )

Sample Images

http://socialporn.online/2017/08/23/srpski-grupnjak-3-serbian/
http://socialporn.online/2017/08/23/srpski-grupnjak-3-serbian-2/
]]>
Striptease and sex girls http://glodls.to/torrent.php?id=2731237 http://glodls.to/torrent.php?id=2731237 Wed, 23 Aug 2017 13:15:26 +0100 Adult XXX
Resolution -  562*398
Size -        111 MB
Runtime -     31 Min 15 Sec
File Formet - MPG,Best Player To Play ( VLC )

Sample Images
   
http://socialporn.online/2017/08/23/striptease-and-sex-girls/
http://socialporn.online/2017/08/23/striptease-and-sex-girls-2/
]]>
threesome more cheerful http://glodls.to/torrent.php?id=2731236 http://glodls.to/torrent.php?id=2731236 Wed, 23 Aug 2017 13:12:10 +0100 Adult XXX
Resolution - 480*272
Size - 237 MB
Runtime - 25 Min 46 Sec
File Formet - MPG,Best Player To Play ( VLC )

Sample Images

http://socialporn.online/2017/08/23/threesome-more-cheerful/
http://socialporn.online/2017/08/23/threesome-more-cheerful-2/ ]]>
ZD Soft Screen Recorder 11 0 0 + keygen http://glodls.to/torrent.php?id=2731235 http://glodls.to/torrent.php?id=2731235 Wed, 23 Aug 2017 13:10:47 +0100 Apps
ZD Soft Screen Recorder 11.0.0 Final is a powerful yet easy-to-use screen capture and video game recording software to do screen recording related tasks. ZD Soft Screen Recorder 11.0.0 Crack permits you to capture or record almost all screen activities up-to 1080p video resolution at 60 frames per second (fps). ZD Soft Screen Recorder 11 Patch supports dozens of file formats and dozens of audio and video encoders. This video game recording software gives you what you need to capture almost all desktop screen activities, including video playbacks, software demonstrations for video tutorials, presentations, online resources, in addition to game plays.

ZD Soft Screen Recorder 11.0.0 Latest records video from the screen, and thanks to the step-by-step wizard, you can configure all parameters in two accounts, you can download ZD Soft Screen Recorder 11.0.0 Serial Key below. You can record as simply performed actions on the PC and record the video and games being viewed. You can record in full screen, a separate window, you can select the area you need.

ZD Soft Screen Recorder 11.0.0 Key Features:

Easy to select recording area (region)
Perfect audio and video synchronization
Real-time FPS number on rendering frames
Smooth screen recording without lagging
Start/pause/resume/stop recording easily
Supports arbitrary video resolutions
Supports AVI, FLV, ASF, GIF, MKV, etc.
Capture video, audio, and screenshot
Easy to customize recording settings
Easy to record and manage recordings
Supports BMP, JPG and PNG image formats
Supports H264, Xvid, AAC, AC-3, MP3, etc.
Supports multi-monitor and multiple audio
Supports OpenGL, DirectDraw, Direct3D
Supports unlimited recording length
Timer, mouse-click, and program-detection
Various automation functions, and much more. ]]>
Ultra Gorgeous Nri bitch fucking hardcore http://glodls.to/torrent.php?id=2731234 http://glodls.to/torrent.php?id=2731234 Wed, 23 Aug 2017 13:08:54 +0100 Adult XXX
Resolution - 640*360
Size - 258 MB
Runtime - 01 Hr. 22 Min 34 Sec
File Formet - MP4,Best Player To Play ( VLC )

Sample Images

http://socialporn.online/2017/08/23/ultra-gorgeous-nri-bitch-fucking-hardcore/
http://socialporn.online/2017/08/23/ultra-gorgeous-nri-bitch-fucking-hardcore-2/ ]]>
WonderFox DVD Ripper Pro 9 0 + Keygen http://glodls.to/torrent.php?id=2731233 http://glodls.to/torrent.php?id=2731233 Wed, 23 Aug 2017 13:08:21 +0100 Apps
It allows you to rip DVD and convert tracks in the desired audio formats download WonderFox DVD Ripper possible.
You can also convert videos to formats that will go perfectly on mobile devices, game consoles.
It is possible to add effects to your videos, you can merge several videos into one track, and so on,
a batch mode too.

How to Install:
1. Run "dvd-ripper.exe" and install it
2. Use given "keygen.exe" to register software
3. Done and don't forget to like us on Facebook

[img]http://softwareworld.win/wp-content/uploads/2017/08/WonderFox-DVD-Ripper-Pro-9.0-Keygen.jpg[/img] ]]>
Vintage Russian Homemade Sex Tape http://glodls.to/torrent.php?id=2731232 http://glodls.to/torrent.php?id=2731232 Wed, 23 Aug 2017 13:05:44 +0100 Adult XXX
Resolution - 544*408
Size - 178 MB
Runtime - 49 Min 44 Sec
File Formet - MP4,Best Player To Play ( VLC )

Sample Images

http://socialporn.online/2017/08/23/vintage-russian-homemade-sex-tape/
http://socialporn.online/2017/08/23/vintage-russian-homemade-sex-tape-2/
]]>
The Journal + key http://glodls.to/torrent.php?id=2731231 http://glodls.to/torrent.php?id=2731231 Wed, 23 Aug 2017 13:05:29 +0100 Apps
The Journal
is a fancy program for creating a letter,
keeping a journal, the software should appeal to creative people,
you get unprecedented flexibility, convenience and security.
The magazine will always be available, it will allow you to create records with text,
pictures and almost any other elements. In addition, you can protect the records with
password and encryption. With this program you can be sure that your secrets will only be yours.
The program will allow you to easily create new records, view the latest entries quickly moving
through the calendar, the development supports work in almost all versions of Windows.


How to Install:
1). Instructions are included in ReadMe.txt if needed.
2). Thats all, Done & enjoy.
]]>
virgin chut mere ghar pe boyfriend ne dhanadhan http://glodls.to/torrent.php?id=2731230 http://glodls.to/torrent.php?id=2731230 Wed, 23 Aug 2017 13:03:36 +0100 Adult XXX File Name - virgin chut mere ghar pe boyfriend ne dhanadhan

Resolution - 480*272
Size - 269 MB
Runtime - 29 Min 14 Sec
File Formet - MPG,Best Player To Play ( VLC )

Sample Images

http://socialporn.online/2017/08/23/virgin-chut-mere-ghar-pe-boyfriend-ne-dhanadhan/
http://socialporn.online/2017/08/23/virgin-chut-mere-ghar-pe-boyfriend-ne-dhanadhan-2/
]]>
Ratiborus KMS Tools 07 08 2017 Portable http://glodls.to/torrent.php?id=2731229 http://glodls.to/torrent.php?id=2731229 Wed, 23 Aug 2017 13:02:57 +0100 Apps

Included programs:
AAct v3.5 Portable
Garbage Collector v1.3.4 x86_x64_06_02_2016
KMSAuto Lite Portable v1.3.3
KMSAuto Net 2016 v1.5.1 Portable
KMSCleaner v1.5 Portable
MSActBackUp Portable v1.1.0
MSAct Plus v1.0.7
Office 2013-2016 C2R Install v6.0.0
PIDKey Lite v1.54
UniCrypt 2016 v2.2

[img]https://s1.postimg.org/7pzmcfp4f/rx_Wb7k_Chh0q_Xqt8b_Mwa_DO0_Rzb_T8_S4_Syw.jpg[/img] ]]>
Hollywood Game Night S05E07 HDTV x264-CROOKS http://glodls.to/torrent.php?id=2731184 http://glodls.to/torrent.php?id=2731184 Wed, 23 Aug 2017 13:00:12 +0100 TV http://www.tvrage.com/schedule.php?show_yesterday=1. ]]> Offspring S07E09 720p HDTV x264-ORENJI http://glodls.to/torrent.php?id=2731183 http://glodls.to/torrent.php?id=2731183 Wed, 23 Aug 2017 13:00:11 +0100 TV http://www.tvrage.com/schedule.php?show_yesterday=1. ]]> Hollywood Game Night S05E07 720p HDTV x264-CROOKS http://glodls.to/torrent.php?id=2731182 http://glodls.to/torrent.php?id=2731182 Wed, 23 Aug 2017 13:00:09 +0100 TV http://www.tvrage.com/schedule.php?show_yesterday=1. ]]> Time After Time US S01E11 HDTV x264-SFM http://glodls.to/torrent.php?id=2731181 http://glodls.to/torrent.php?id=2731181 Wed, 23 Aug 2017 13:00:08 +0100 TV http://www.tvrage.com/schedule.php?show_yesterday=1. ]]> Utopia AU S03E06 720p HDTV x264-W4F http://glodls.to/torrent.php?id=2731180 http://glodls.to/torrent.php?id=2731180 Wed, 23 Aug 2017 13:00:06 +0100 TV http://www.tvrage.com/schedule.php?show_yesterday=1. ]]> Offspring S07E09 HDTV x264-FQM http://glodls.to/torrent.php?id=2731179 http://glodls.to/torrent.php?id=2731179 Wed, 23 Aug 2017 13:00:04 +0100 TV http://www.tvrage.com/schedule.php?show_yesterday=1. ]]> PDF Anti-Copy 1 0 8 4 + Patch http://glodls.to/torrent.php?id=2731178 http://glodls.to/torrent.php?id=2731178 Wed, 23 Aug 2017 12:59:47 +0100 Apps
UNLIKE normal PDF protection utilities only adding restrictions to PDF files, PDF Anti-Copy reprocesses all the words and graphics on the sensitive PDF pages to secure PDF documents, without changing the original content format. The processed PDF files could be opened and viewed by PDF Readers, but copying and converting the content on the Anti-Copy Pages will not work even the cracker uses the PDF unlocking or restriction removing programs.

Remove copy-related permissions in four easy steps
Following a quick and uneventful installation, you are welcomed by a modern looking interface that is easy to navigate and unlikely to give you any trouble, regardless of your previous experience with similar apps.

Protecting a PDF document is a quick and painless operation that entails four simple steps, namely selecting the desired file, the page, output folder and then hitting the start button. It is worth mentioning that the selecting the page is only available for documents that contain more pages solely.

Provides protection against conversion and copy
As you probably hinted from the GUI, the program allows you to zoom in and out, an option that can surely help when analyzing a PDF file. In fact, the option can be quite useful when you are processing contracts that feature fine print or footnotes, as you want to make sure they are not altered in any way before reaching their designated recipients.

Besides disabling the permission to select the text from the document, the program also protects your PDF files from being converted with other third-party software solutions. While the operation can be carried out, the result is usually a blank page.

Unfortunately, the app does not have batch processing, so you need to process documents one at a time. The idea for the utility is to allow users to preview the content exactly as you send it but removes the possibility to copy or convert it.

A useful tool for anyone sharing PDF documents regularly
In spite of the fact that it does not come with a batch processing capability, PDF Anti-Copy is a reliable tool that can help you protect your critical data from being copied, printed or converted to other formats that allow editing.

[img]https://pbs.twimg.com/media/DGqgZzzXUAEFxa3.jpg[/img] ]]>
Drawing.Flies.1996.720p.BluRay.x264-x0r http://glodls.to/torrent.php?id=2731177 http://glodls.to/torrent.php?id=2731177 Wed, 23 Aug 2017 12:55:41 +0100 Movies
[b]ImDb: [URL]http://www.imdb.com/title/tt0116138[/URL][/b]

[url=https://www.sparrowpics.com/image/kbFon][img]https://www.sparrowpics.com/images/2017/07/04/kbFon.png[/img][/url]

[b]Complete name : Drawing.Flies.1996.720p.BluRay.x264-x0r.mkv
Format : Matroska
Format version : Version 4 / Version 2
File size : 1.65 GiB
Duration : 1 h 16 min
Overall bit rate : 3 105 kb/s
Movie name : Drawing.Flies.1996.720p.BluRay.x264-x0r
Encoded date : UTC 2017-08-23 12:37:16
Writing application : mkvmerge v7.7.0 ('Six Voices') 64bit built on Mar 1 2015 01:50:05
Writing library : libebml v1.3.1 + libmatroska v1.4.2

Video
ID : 1
Format : AVC
Format/Info : Advanced Video Codec
Format profile : High@L4
Format settings, CABAC : Yes
Format settings, ReFrames : 8 frames
Codec ID : V_MPEG4/ISO/AVC
Duration : 1 h 16 min
Bit rate : 2 560 kb/s
Width : 1 280 pixels
Height : 720 pixels
Display aspect ratio : 16:9
Frame rate mode : Constant
Frame rate : 23.976 (24000/1001) FPS
Color space : YUV
Chroma subsampling : 4:2:0
Bit depth : 8 bits
Scan type : Progressive
Bits/(Pixel*Frame) : 0.116
Stream size : 1.36 GiB (82%)
Writing library : x264 core 142 r2389 956c8d8
Encoding settings : cabac=1 / ref=8 / deblock=1:1:1 / analyse=0x3:0x113 / me=umh / subme=9 / psy=1 / psy_rd=1.10:0.30 / mixed_ref=0 / me_range=32 / chroma_me=1 / trellis=2 / 8x8dct=1 / cqm=0 / deadzone=6,6 / fast_pskip=0 / chroma_qp_offset=-4 / threads=12 / lookahead_threads=1 / sliced_threads=0 / nr=0 / decimate=1 / interlaced=0 / bluray_compat=0 / constrained_intra=0 / bframes=4 / b_pyramid=2 / b_adapt=2 / b_bias=0 / direct=3 / weightb=1 / open_gop=0 / weightp=2 / keyint=240 / keyint_min=24 / scenecut=40 / intra_refresh=0 / rc_lookahead=60 / rc=2pass / mbtree=1 / bitrate=2560 / ratetol=1.0 / qcomp=0.00 / qpmin=0 / qpmax=69 / qpstep=4 / cplxblur=20.0 / qblur=0.5 / vbv_maxrate=20000 / vbv_bufsize=25000 / nal_hrd=none / filler=0 / ip_ratio=1.10 / aq=1:1.10
Language : English
Default : Yes
Forced : No
Color range : Limited
Color primaries : BT.709
Transfer characteristics : BT.709
Matrix coefficients : BT.709

Audio #1
ID : 2
Format : AC-3
Format/Info : Audio Coding 3
Format settings, Endianness : Big
Codec ID : A_AC3
Duration : 1 h 16 min
Bit rate mode : Constant
Bit rate : 160 kb/s
Channel(s) : 1 channel
Channel positions : Front: C
Sampling rate : 48.0 kHz
Frame rate : 31.250 FPS (1536 spf)
Bit depth : 16 bits
Compression mode : Lossy
Delay relative to video : -5 ms
Stream size : 87.1 MiB (5%)
Title : Mono
Language : English
Service kind : Complete Main
Default : Yes
Forced : No

Audio #2
ID : 3
Format : AC-3
Format/Info : Audio Coding 3
Format settings, Endianness : Big
Codec ID : A_AC3
Duration : 1 h 16 min
Bit rate mode : Constant
Bit rate : 192 kb/s
Channel(s) : 2 channels
Channel positions : Front: L R
Sampling rate : 48.0 kHz
Frame rate : 31.250 FPS (1536 spf)
Bit depth : 16 bits
Compression mode : Lossy
Delay relative to video : -5 ms
Stream size : 105 MiB (6%)
Title : Commentary #1
Language : English
Service kind : Complete Main
Default : No
Forced : No

Audio #3
ID : 4
Format : AC-3
Format/Info : Audio Coding 3
Format settings, Endianness : Big
Codec ID : A_AC3
Duration : 1 h 16 min
Bit rate mode : Constant
Bit rate : 192 kb/s
Channel(s) : 2 channels
Channel positions : Front: L R
Sampling rate : 48.0 kHz
Frame rate : 31.250 FPS (1536 spf)
Bit depth : 16 bits
Compression mode : Lossy
Delay relative to video : -5 ms
Stream size : 105 MiB (6%)
Title : Commentary #2
Language : English
Service kind : Complete Main
Default : No
Forced : No

Menu
00:00:00.000 : :Chapter 1
00:04:24.890 : :Chapter 2
00:12:42.345 : :Chapter 3
00:20:58.299 : :Chapter 4
00:31:40.273 : :Chapter 5
00:38:19.339 : :Chapter 6
00:47:44.403 : :Chapter 7
00:52:47.039 : :Chapter 8
01:00:54.025 : :Chapter 9
01:07:51.568 : :Chapter 10[/b]

[url=https://www.sparrowpics.com/image/kbJ5y][img]https://www.sparrowpics.com/images/2017/07/04/kbJ5y.png[/img][/url]

[URL=https://www.sparrowpics.com/image/QX9VK][IMG]https://www.sparrowpics.com/images/2017/08/23/QX9VK.th.jpg[/IMG][/URL]

[URL=https://www.sparrowpics.com/image/QXfFX][b]Click To View Screenshot[/b][/URL]

[URL=https://www.sparrowpics.com/image/QXw6M][b]Click To View Screenshot[/b][/URL]

[URL=https://www.sparrowpics.com/image/QXxtV][b]Click To View Screenshot[/b][/URL][/center] ]]>
History Revealed - History s Greatest Mysteries 2017 (gnv64) http://glodls.to/torrent.php?id=2731176 http://glodls.to/torrent.php?id=2731176 Wed, 23 Aug 2017 12:39:35 +0100 Books
[color=Brown][b]History Revealed - History's Greatest Mysteries 2017
English | 116 pages | True PDF | 37.7 mb[/b][/color]

[color=Red]CONTENTS[/color]
[color=Blue]50 GREATEST MYSTERIES - Our expert pick of history’s most enduring mysteries
THE QUEST FOR THE HOLY GRAIL - What is the truth behind history’s greatest legend?
MYSTERIES OF ANCIENT EGYPT - From the pyramids to the pharaohs
BRITAIN’S UNSOLVED CRIMES - From the Princes in the Tower to Jack the Ripper
THE TERRACOTTA ARMY - Uncovering China’s underground warriors
TOP 10 LOST TREASURES - Bountiful booty that’s still waiting to be found
SEVEN WONDERS OF THE ANCIENT WORLD - Engineering from antiquity
ROBIN HOOD - The truth behind England’s legendary archer
KING ARTHUR - Did England’s most famous monarch ever live?
THE LOCH NESS MONSTER - Nessie was first sighted in AD 565
TOP 10 LOST CITIES - Searching the oceans, jungles and soil of the world
LEGEND OF TROY - A 3,000-year-old tale of war and wooden horses
MACHU PICCHU: CITY IN THE SKY - The Incas’ great domain was lost for 350 years[/color] ]]>
Office 2013-2016 C2R Install 6 0 0 + Lite http://glodls.to/torrent.php?id=2731175 http://glodls.to/torrent.php?id=2731175 Wed, 23 Aug 2017 12:38:15 +0100 Apps

Office 2013-2016 C2R Install + Lite (Office Activator & Downloader)
This program designed for on-line installation and activation Microsoft Office 2013/2016 C2R. You also can create custom installation of Office off-line for using later.

How to use the program:
1. Uninstall Office 2016 via (Control panel) Applet “Add or remove Programs”.
2. Uninstall Office 2016 using the “Force Remove Office” and restart your computer.
3. Install Office by Clicking the “Install Office” button.
4. Go to “Utilities” tab and do the conversion “Office RETAIL => VL”.
5. Then click “Activate Office” button.
or
6. Start KMSAuto Net 2015 and click “Activate Office”.

How to use Bookmark Download Office:
Bookmark Download Office serves to create the off-line installation varying versions and editions of Microsoft Office
with the possibility for the subsequent installation of the product without receiving files from outside..

Select the appropriate version of Office, bit and language. I recommend to make a full x86-x64 distribution.
To do this, select the tab-width All (the lowest). Click the Download button and choose a folder to the distribution files.
You can select the folder of the previous session of the program to further develop distribution, or will start a new session.
If you want to make multilingual distribution – after complete loading of the first language, switch to the pre-
Executive language, click the Download button, and select the same download folder.
After downloading all required bit and spoken recommend creating ISO-image office suite.
To do this, click Create ISO.
As a result, in the selected folder you will see a ready to use off-line installer Microsoft Office
chosen version.
In one session, downloading files does not use different versions of MS Office 2016 and 2013. It is possible to manipulate
with x86-x64 and languages, but not versions. Or use a different folder assignment is. Otherwise you will get unusable distribution.
Now you can create multiple projects distributions of return, additions and corrections have
downloaded. You can choice the versions builds. For Office 2013 Branch-choice and does not matter. Always will
be download the most current build. For Office 2016, you can choose the source of download (branch). Button Check version
has been added to check the build number the selected Branch. ]]>
MiniTool Partition Wizard 10 2 2 Portable Cracked http://glodls.to/torrent.php?id=2731174 http://glodls.to/torrent.php?id=2731174 Wed, 23 Aug 2017 12:34:42 +0100 Apps
MiniTool Partition Wizard Professional Edition 10.0 (x86/x64) Portable

MiniTool Partition Wizard Professional Edition is a magic partition software optimized for business environment with advanced features such as Merge Partition, Convert Dynamic disk to Basic disk and Change cluster size. Business users and system administrators can use this magic partition software to Resize and Move partitions, Merge Partition, Extend Partition, Split Partition, Change Cluster Size, Copy Partition, Copy Disk, Create, Delete and Format partitions, Convert and Explore partitions, Hide and Unhide partitions, Convert Dynamic Disk to Basic Disk and much more.

Manage both basic disk and dynamic disk with one solution, no matter you want to resize partition or dynamic volume. Convert dynamic disk to basic disk without data loss or other dynamic disk converter. Safely merge two partitions into a bigger one without losing data. One-key extend partition wizard helps increase system partition size without rebooting to minimize server downtime.
MiniTool Partition Wizard has the simple and easy to use interface. All basic functions are displayed at the top of the window as large icons as well as on the menus, and more advanced functions like “wipe disk” are only found on the menu where you’re not likely to choose them accidentally.

MiniTool Partition Wizard Professional Edition Additional Functions:
Merge Partition
Change Cluster
Size Resize/Move Dynamic Volume
Delete Dynamic Volume
Format Dynamic Volume
Change Dynamic Volume Letter
Change Dynamic Volume label
Change Dynamic Volume Cluster Size
Convert Dynamic Disk to Basic
[img]https://www.sadeempc.com/wp-content/uploads/2017/02/MiniTool-Partition-Wizard-Professional-Edition-Crack-Patch-Keygen-Serial-Key.jpg[/img] ]]>
KMSAuto Lite 1 3 3 + Portable http://glodls.to/torrent.php?id=2731173 http://glodls.to/torrent.php?id=2731173 Wed, 23 Aug 2017 12:31:40 +0100 Apps
KMSAuto Lite
KMS-activator for the operating systems Windows VL editions:
Windows XP, Windows Vista, 7, Windows 8, 8.1, 10, Server 2008, 2008 R2, 2012, 2012 R2,
Office 2010/2013/2016 . Also you can activate Office 2010 VL on Windows XP.
The switches provide access to the installation GVLK keys and configure the task scheduler.

[img]https://s1.postimg.org/ft8ngalsf/5j_UQLVGgg_HSt3on_Gu4_FRoy_H5_VR23xb_KC.jpg[/img] ]]>
[TheUpperFloor] Angel Allwood, Chloe Cherry - A Mother s Job is Never Done Anal Assassin Trains Her Step-Daughter (22 08 2017) rq mp4 http://glodls.to/torrent.php?id=2731172 http://glodls.to/torrent.php?id=2731172 Wed, 23 Aug 2017 12:31:25 +0100 Adult XXX Audio: aac, 44100 Hz, 2 channels, s16, 125 kb/s (und)
Video: h264, yuv420p, 640x360, 699 kb/s, 29,97 fps(r) (und)

http://www.pixsense.net/site/v/2694825#51&2694825


]]>
[AnimeRG] Boruto - Naruto Next Generations - 21 [Multi-Sub] [HEVC] [x265] [720p] [pseudo] http://glodls.to/torrent.php?id=2731170 http://glodls.to/torrent.php?id=2731170 Wed, 23 Aug 2017 12:28:47 +0100 Anime
<br />
Format/Info : HEVC / x265<br />
Resolution :1280x720<br />
Frame Rate : 23.976 fps<br />
<br />
[u][b][size=4]..::Audio Specs::..[/size][/b][/u]<br />
<br />
Format/Info : Advanced Audio Codec<br />
Channels : 2 channels<br />
Sample Rate : 48KHz<br />
Language : Japanese<br />
<br />
[u][b][size=4]..::Subtitles::..[/size][/b][/u]<br />
<br />
Language : English, Arabic, German, Italian, Portuguese, Spanish (Castilian), Spanish (Latin America)<br />
Type : Soft Coded<br />
Format : ASS / SRT<br />
<br />
[u][b][size=4]..::Source::..[/size][/b][/u]<br />
<br />
Web-Rip: Crunchyroll (427 MB)<br />
[/center] ]]>
[AnimeRG] Boruto - Naruto Next Generations - 21 [Multi-Sub] [HEVC] [x265] [1080p] [pseudo] http://glodls.to/torrent.php?id=2731168 http://glodls.to/torrent.php?id=2731168 Wed, 23 Aug 2017 12:27:41 +0100 Anime
<br />
Format/Info : HEVC / x265<br />
Resolution :1920x1080<br />
Frame Rate : 23.976 fps<br />
<br />
[u][b][size=4]..::Audio Specs::..[/size][/b][/u]<br />
<br />
Format/Info : Advanced Audio Codec<br />
Channels : 2 channels<br />
Sample Rate : 48KHz<br />
Language : Japanese<br />
<br />
[u][b][size=4]..::Subtitles::..[/size][/b][/u]<br />
<br />
Language : English, Arabic, German, Italian, Portuguese, Spanish (Castilian), Spanish (Latin America)<br />
Type : Soft Coded<br />
Format : ASS / SRT<br />
<br />
[u][b][size=4]..::Source::..[/size][/b][/u]<br />
<br />
Web-Rip: Crunchyroll (1.07 GB)<br />
[/center] ]]>
jv16 PowerTools 2017 4 1 0 1753 + Portable + licence http://glodls.to/torrent.php?id=2731167 http://glodls.to/torrent.php?id=2731167 Wed, 23 Aug 2017 12:25:20 +0100 Apps
jv16 PowerTools 2017 4.1.0.1753 + Portable + licence Before you a fairly popular program for caring for your computer, after its launch it will be possible to easily clean the system of all sorts of garbage, optimize it with built-in utilities. In addition, you can work with the Windows registry, delete garbage, configure settings, you can also work with additional system components, you can download jv16 PowerTools in full news.Optimization of the system occurs mainly due to the fact that any accumulated garbage in the system can be found and deleted, the computer should, according to the developers, work after faster. Jv16 PowerTools has a lot of fine registry settings and system files, you can also use the search and delete files, you can also completely remove programs from the system, edit autorun, run the Start menu, and the built-in manager of different services.Jv16 PowerTools has a nice interface, Russian support is present, registration is simple, you have to copy the license file to the folder with the installed program, after launch, choose the language of support, then wait 2 to 10 minutes while the system analysis is in progress, then you can start working With your system and setting their parameters. Here is a convenient development before you, I hope jv16 PowerTools will appeal to you.

Developer: Macecraft, Inc
License: ShareWare & FreeWare
Language: Multi ]]>
Time.After.Time.US.S01E11.HDTV.x264-SFM http://glodls.to/torrent.php?id=2731166 http://glodls.to/torrent.php?id=2731166 Wed, 23 Aug 2017 12:24:31 +0100 TV
[url=https://www.sparrowpics.com/image/kbFon][img]https://www.sparrowpics.com/images/2017/07/04/kbFon.png[/img][/url]

[b]Complete name : Time.After.Time.US.S01E11.HDTV.x264-SFM.mkv
Format : Matroska
Format version : Version 4 / Version 2
File size : 254 MiB
Duration : 40 min 23 s
Overall bit rate : 879 kb/s
Encoded date : UTC 2017-08-23 12:07:28
Writing application : mkvmerge v14.0.0 ('Flow') 64bit
Writing library : libebml v1.3.4 + libmatroska v1.4.5

Video
ID : 1
Format : AVC
Format/Info : Advanced Video Codec
Format profile : High@L3.1
Format settings, CABAC : Yes
Format settings, ReFrames : 5 frames
Codec ID : V_MPEG4/ISO/AVC
Duration : 40 min 23 s
Bit rate : 781 kb/s
Width : 720 pixels
Height : 404 pixels
Display aspect ratio : 16:9
Frame rate mode : Constant
Frame rate : 25.000 FPS
Color space : YUV
Chroma subsampling : 4:2:0
Bit depth : 8 bits
Scan type : Progressive
Bits/(Pixel*Frame) : 0.107
Stream size : 226 MiB (89%)
Default : Yes
Forced : No

Audio
ID : 2
Format : AAC
Format/Info : Advanced Audio Codec
Format profile : LC
Codec ID : A_AAC
Duration : 40 min 23 s
Bit rate : 96.0 kb/s
Channel(s) : 2 channels
Channel positions : Front: L R
Sampling rate : 48.0 kHz
Frame rate : 46.875 FPS (1024 spf)
Compression mode : Lossy
Delay relative to video : 1 ms
Stream size : 27.7 MiB (11%)
Language : new
Default : Yes
Forced : No[/b]

[url=https://www.sparrowpics.com/image/kbJ5y][img]https://www.sparrowpics.com/images/2017/07/04/kbJ5y.png[/img][/url]

[URL=https://tv.sparrowpics.com/image/KD552][IMG]https://tv.sparrowpics.com/images/2017/08/23/KD552.th.jpg[/IMG][/URL]

[URL=https://tv.sparrowpics.com/image/KDdIg][b]Click To View Screenshot[/b][/URL]

[URL=https://tv.sparrowpics.com/image/KDh65][b]Click To View Screenshot[/b][/URL]

[URL=https://tv.sparrowpics.com/image/KDAOw][b]Click To View Screenshot[/b][/URL][/center] ]]>
Hollywood.Game.Night.S05E07.HDTV.x264-CROOKS[ettv] http://glodls.to/torrent.php?id=2731165 http://glodls.to/torrent.php?id=2731165 Wed, 23 Aug 2017 12:21:49 +0100 TV Et TV Shows


Hollywood.Game.Night.S05E07.HDTV.x264-CROOKS


[Format]: Matroska
[Duration]: 41mn 45s
[Resolution]: 720 x 404 pixels
[Display aspect ratio]: 16:9
[Frame rate mode]: Constant
[Frame rate]: 29.970 fps


[color=green][b]#ettv -> To avoid fakes, ALWAYS check that the torrent was added by ettv[/b][/color]




[color=green][b]To keep us going Support us by donating Bitcoin: 3MDamEmgKepqagtQe9eEdQ3NCrWEWjhoL5[/b][/color]

[b]Screens...[/b]
[url=https://extraimage.net/image/Tjyo][img]https://extraimage.net/images/2017/08/23/83cf4c6428727251b85b8b2ad936ed09.th.jpg[/img][/url] ]]>