GloDLS.to - Download Movies, TV, Games and Other Torrents Free RSS 2.0enGloDLS.to - Download Movies, TV, Games and Other Torrents FreeGloDLS.to - Download Movies, TV, Games and Other Torrents Free RSS Feedhttp://glodls.toCopyright GloDLS.to - Download Movies, TV, Games and Other Torrents FreeSun, 25 Jun 2017 16:41:59 +0100 King.Arthur.Legend.of.the.Sword.2017.HC.HDRip.XviD.AC3-iFT http://glodls.to/torrent.php?id=2585360 http://glodls.to/torrent.php?id=2585360 Sun, 25 Jun 2017 15:40:46 +0100 Movies
[b]ImDb: [URL]http://www.imdb.com/title/tt1972591[/URL][/b]

[url=https://www.sparrowpics.com/image/LwB][img]https://www.sparrowpics.com/images/2015/12/10/Info.png[/img][/url]

[b]Complete name : King.Arthur.Legend.of.the.Sword.2017.HC.HDRip.XviD.AC3-iFT.avi
Format : AVI
Format/Info : Audio Video Interleave
Format profile : OpenDML
Format settings : rec
File size : 2.07 GiB
Duration : 2 h 6 min
Overall bit rate : 2 346 kb/s
Writing application : AVI-Mux GUI 1.17.8.3, Feb 16 201019:42:50

Video
ID : 0
Format : MPEG-4 Visual
Format profile : Advanced Simple@L5
Format settings, BVOP : 2
Format settings, QPel : No
Format settings, GMC : No warppoints
Format settings, Matrix : Default (H.263)
Muxing mode : Packed bitstream
Codec ID : XVID
Codec ID/Hint : XviD
Duration : 2 h 6 min
Bit rate : 2 148 kb/s
Width : 720 pixels
Height : 304 pixels
Display aspect ratio : 2.35:1
Frame rate : 29.970 (30000/1001) FPS
Color space : YUV
Chroma subsampling : 4:2:0
Bit depth : 8 bits
Scan type : Progressive
Compression mode : Lossy
Bits/(Pixel*Frame) : 0.327
Stream size : 1.89 GiB (92%)
Writing library : XviD 73

Audio
ID : 1
Format : AC-3
Format/Info : Audio Coding 3
Format settings, Endianness : Big
Codec ID : 2000
Duration : 2 h 6 min
Bit rate mode : Constant
Bit rate : 192 kb/s
Channel(s) : 2 channels
Channel positions : Front: L R
Sampling rate : 48.0 kHz
Frame rate : 31.250 FPS (1536 spf)
Bit depth : 16 bits
Compression mode : Lossy
Stream size : 173 MiB (8%)
Alignment : Aligned on interleaves
Interleave, duration : 64 ms (1.92 video frames)
Interleave, preload duration : 192 ms
Title : King.track_2
Service kind : Complete Main[/b]

[url=https://www.sparrowpics.com/image/UYe][img]https://www.sparrowpics.com/images/2015/12/10/Screens.png[/img][/url]

[URL=https://www.sparrowpics.com/image/KhMoP][IMG]https://www.sparrowpics.com/images/2017/06/25/KhMoP.th.jpg[/IMG][/URL]
[URL=https://www.sparrowpics.com/image/KhU4m][b]Click To View Screenshot[/b][/URL]
[URL=https://www.sparrowpics.com/image/KhWmr][b]Click To View Screenshot[/b][/URL]
[URL=https://www.sparrowpics.com/image/Kh3gW][b]Click To View Screenshot[/b][/URL][/center] ]]>
Rina Ellis - Stepsister Problems [DigitalPlayground] http://glodls.to/torrent.php?id=2585359 http://glodls.to/torrent.php?id=2585359 Sun, 25 Jun 2017 15:40:06 +0100 Adult XXX
Genre :- Teen, Blowjob, Masturbation, Vaginal Sex] 480p

Screenshot :-

[url=http://imgtorrnt.in/view.php?id=Yzl5C5J][color=green] View Screen 1 [/color] [/url]

[url=http://imgtorrnt.in/view.php?id=KolyeO8][color=green] View Screen 2 [/color] [/url]

[img]http://i.imgur.com/Yzl5C5J.jpg[/img]

]]>
King.Arthur.Legend.of.the.Sword.2017.HC.HDRip.XviD.AC3-iFT http://glodls.to/torrent.php?id=2585358 http://glodls.to/torrent.php?id=2585358 Sun, 25 Jun 2017 15:38:52 +0100 Movies [color=red][b]
King.Arthur.Legend.of.the.Sword.2017.HC.HDRip.XviD.AC3-iFT

[/b][/color]


IMDb: http://www.imdb.com/title/tt1972591/





[url=https://boltimg.com/image/t52z][img]https://boltimg.com/images/t52z.png[/img][/url]



[color=green][b]
General

(Duration): 2h 6mn
(FileSize): 2.07 GiB



Audio

(Format): AC-3 - Audio Coding 3
(Codec): AC3



Video

(Format): MPEG-4 Visual -
(Media): video/MP4V-ES
(Format): XviD
(Resolution): 720x304 px
(AspectRatio): 2.35:1
(FrameRate): 29.970 fps




[/b][/color]


[url=https://boltimg.com/image/tzTE][img]https://boltimg.com/images/tzTE.png[/img][/url]



[color=purple][b](Click to enlarge)[/b][/color]

[url=https://boltimg.com/image/Wtson][img]https://boltimg.com/images/Wtson.th.jpg[/img][/url] [url=https://boltimg.com/image/WtFnA][img]https://boltimg.com/images/WtFnA.th.jpg[/img][/url] [url=https://boltimg.com/image/WtVkk][img]https://boltimg.com/images/WtVkk.th.jpg[/img][/url] [url=https://boltimg.com/image/WtiYm][img]https://boltimg.com/images/WtiYm.th.jpg[/img][/url] [url=https://boltimg.com/image/WtpSI][img]https://boltimg.com/images/WtpSI.th.jpg[/img][/url] [url=https://boltimg.com/image/WtJz5][img]https://boltimg.com/images/WtJz5.th.jpg[/img][/url]

[/center]
]]>
[AnimeRG] One Piece - 794 [Multi-Sub] [HEVC] [x265] [720p] [pseudo] http://glodls.to/torrent.php?id=2585356 http://glodls.to/torrent.php?id=2585356 Sun, 25 Jun 2017 15:38:17 +0100 Anime
<br />
Format/Info : HEVC / x265<br />
Resolution : 1280x720<br />
Frame Rate : 23.976 fps<br />
<br />
[u][b][size=4]..::Audio Specs::..[/size][/b][/u]<br />
<br />
Format/Info : Advanced Audio Codec<br />
Channels : 2 channels<br />
Sample Rate : 48KHz<br />
Language : Japanese<br />
<br />
[u][b][size=4]..::Subtitles::..[/size][/b][/u]<br />
<br />
Language : English, Arabic, Portuguese, Spanish (LA)<br />
Type : Soft Coded<br />
Format : ASS / SRT<br />
<br />
[u][b][size=4]..::Source::..[/size][/b][/u]<br />
<br />
Web-Rip: Crunchyroll (453 MB)<br />
[/center] ]]>
[AnimeRG] One Piece - 794 [Multi-Sub] [HEVC] [x265] [1080p] [pseudo] http://glodls.to/torrent.php?id=2585354 http://glodls.to/torrent.php?id=2585354 Sun, 25 Jun 2017 15:36:57 +0100 Anime
<br />
Format/Info : HEVC / x265<br />
Resolution : 1920x1080<br />
Frame Rate : 23.976 fps<br />
<br />
[u][b][size=4]..::Audio Specs::..[/size][/b][/u]<br />
<br />
Format/Info : Advanced Audio Codec<br />
Channels : 2 channels<br />
Sample Rate : 48KHz<br />
Language : Japanese<br />
<br />
[u][b][size=4]..::Subtitles::..[/size][/b][/u]<br />
<br />
Language : English, Arabic, Portuguese, Spanish (LA)<br />
Type : Soft Coded<br />
Format : ASS / SRT<br />
<br />
[u][b][size=4]..::Source::..[/size][/b][/u]<br />
<br />
Web-Rip: Crunchyroll (1 GB)<br />
[/center] ]]>
Ebony GFs Pre-Party Pounding [EbonySexTapes - Mofos] http://glodls.to/torrent.php?id=2585353 http://glodls.to/torrent.php?id=2585353 Sun, 25 Jun 2017 15:36:52 +0100 Adult XXX
Genre :- [POV, Straight, Doggystyle, Missionary, Doggystyle (Standing), Pussy Licking, Indoors, Ebony] 480p

Screenshot :-

[url=http://imgtorrnt.in/view.php?id=wVLy3oT][color=green] View Screen 1 [/color] [/url]

[url=http://imgtorrnt.in/view.php?id=6j4N5UI][color=green] View Screen 2 [/color] [/url]

[img]http://i.imgur.com/wVLy3oT.jpg[/img]

]]>
Joe.Versus.the.Volcano.1990.720p.BluRay.x264-CiNEFiLE http://glodls.to/torrent.php?id=2585352 http://glodls.to/torrent.php?id=2585352 Sun, 25 Jun 2017 15:34:42 +0100 Movies
[b]ImDb: [URL]http://www.imdb.com/title/tt0099892[/URL][/b]

[url=https://www.sparrowpics.com/image/LwB][img]https://www.sparrowpics.com/images/2015/12/10/Info.png[/img][/url]

[b]Complete name : Joe.Versus.the.Volcano.1990.720p.BluRay.x264-CiNEFiLE.mkv
Format : Matroska
Format version : Version 4 / Version 2
File size : 4.37 GiB
Duration : 1 h 42 min
Overall bit rate : 6 122 kb/s
Encoded date : UTC 2017-06-25 11:39:10
Writing application : mkvmerge v6.8.0 ('Theme for Great Cities') 64bit built on Mar 2 2014 21:34:26
Writing library : libebml v1.3.0 + libmatroska v1.4.1

Video
ID : 1
Format : AVC
Format/Info : Advanced Video Codec
Format profile : High@L4.1
Format settings, CABAC : Yes
Format settings, ReFrames : 9 frames
Codec ID : V_MPEG4/ISO/AVC
Duration : 1 h 42 min
Bit rate : 4 610 kb/s
Width : 1 280 pixels
Height : 536 pixels
Display aspect ratio : 2.40:1
Frame rate mode : Constant
Frame rate : 23.976 (24000/1001) FPS
Color space : YUV
Chroma subsampling : 4:2:0
Bit depth : 8 bits
Scan type : Progressive
Bits/(Pixel*Frame) : 0.280
Stream size : 3.20 GiB (73%)
Writing library : x264 core 150 r2833 df79067
Encoding settings : cabac=1 / ref=9 / deblock=1:-3:-3 / analyse=0x3:0x113 / me=umh / subme=8 / psy=1 / psy_rd=1.00:0.00 / mixed_ref=1 / me_range=16 / chroma_me=1 / trellis=2 / 8x8dct=1 / cqm=0 / deadzone=21,11 / fast_pskip=0 / chroma_qp_offset=-2 / threads=12 / lookahead_threads=2 / sliced_threads=0 / nr=0 / decimate=1 / interlaced=0 / bluray_compat=0 / constrained_intra=0 / bframes=3 / b_pyramid=2 / b_adapt=1 / b_bias=0 / direct=1 / weightb=1 / open_gop=0 / weightp=2 / keyint=250 / keyint_min=23 / scenecut=40 / intra_refresh=0 / rc_lookahead=40 / rc=2pass / mbtree=1 / bitrate=4610 / ratetol=1.0 / qcomp=0.60 / qpmin=0 / qpmax=69 / qpstep=4 / cplxblur=20.0 / qblur=0.5 / ip_ratio=1.40 / aq=1:1.00
Language : English
Default : Yes
Forced : No

Audio
ID : 2
Format : DTS
Format/Info : Digital Theater Systems
Mode : 16
Format settings, Endianness : Big
Codec ID : A_DTS
Duration : 1 h 42 min
Bit rate mode : Constant
Bit rate : 1 509 kb/s
Channel(s) : 6 channels
Channel positions : Front: L C R, Side: L R, LFE
Sampling rate : 48.0 kHz
Frame rate : 93.750 FPS (512 spf)
Bit depth : 24 bits
Compression mode : Lossy
Stream size : 1.08 GiB (25%)
Language : English
Default : Yes
Forced : No

Text #1
ID : 3
Format : UTF-8
Codec ID : S_TEXT/UTF8
Codec ID/Info : UTF-8 Plain Text
Language : English
Default : No
Forced : No

Text #2
ID : 4
Format : UTF-8
Codec ID : S_TEXT/UTF8
Codec ID/Info : UTF-8 Plain Text
Title : SDH
Language : English
Default : No
Forced : No

Menu
00:00:00.000 : en:00:00:00.000
00:05:07.057 : en:00:05:07.057
00:11:20.638 : en:00:11:20.638
00:18:20.141 : en:00:18:20.141
00:23:47.051 : en:00:23:47.051
00:25:22.938 : en:00:25:22.938
00:29:45.283 : en:00:29:45.283
00:35:47.687 : en:00:35:47.687
00:40:24.714 : en:00:40:24.714
00:42:41.726 : en:00:42:41.726
00:44:41.387 : en:00:44:41.387
00:47:18.544 : en:00:47:18.544
00:50:31.779 : en:00:50:31.779
00:53:19.530 : en:00:53:19.530
00:55:37.543 : en:00:55:37.543
00:57:45.962 : en:00:57:45.962
01:01:14.921 : en:01:01:14.921
01:03:02.946 : en:01:03:02.946
01:09:16.152 : en:01:09:16.152
01:12:27.176 : en:01:12:27.176
01:17:08.457 : en:01:17:08.457
01:19:02.655 : en:01:19:02.655
01:22:25.399 : en:01:22:25.399
01:26:39.111 : en:01:26:39.111
01:29:10.345 : en:01:29:10.345
01:32:47.812 : en:01:32:47.812
01:37:33.222 : en:01:37:33.222[/b]

[url=https://www.sparrowpics.com/image/UYe][img]https://www.sparrowpics.com/images/2015/12/10/Screens.png[/img][/url]

[URL=https://www.sparrowpics.com/image/KCq1e][IMG]https://www.sparrowpics.com/images/2017/06/25/KCq1e.th.jpg[/IMG][/URL]
[URL=https://www.sparrowpics.com/image/Kh1is][b]Click To View Screenshot[/b][/URL]
[URL=https://www.sparrowpics.com/image/KhFlf][b]Click To View Screenshot[/b][/URL]
[URL=https://www.sparrowpics.com/image/KhJx5][b]Click To View Screenshot[/b][/URL][/center] ]]>
Nina North [MySistersHotFriend - NaughtyAmerica] http://glodls.to/torrent.php?id=2585350 http://glodls.to/torrent.php?id=2585350 Sun, 25 Jun 2017 15:33:39 +0100 Adult XXX
Genre :- [American, Blow Job, Brunette, Cum on Tits, Innie Pussy, Latina, Medium Natural Tits, All Sex, Petite, Shaved, Titty Fucking] 360p

Screenshot :-

[url=http://imgtorrnt.in/view.php?id=ZLzouuK][color=green] View Screen 1 [/color] [/url]

[url=http://imgtorrnt.in/view.php?id=ATJg8pJ][color=green] View Screen 2 [/color] [/url]

[img]http://i.imgur.com/ZLzouuK.jpg[/img]

]]>
[MrAnal] Bridgette B - Blondie gets it in the ass (16 05 2012) rq mp4 http://glodls.to/torrent.php?id=2585347 http://glodls.to/torrent.php?id=2585347 Sun, 25 Jun 2017 15:31:29 +0100 Adult XXX Audio: aac, 44100 Hz, 2 channels, s16, 74 kb/s (eng)
Video: h264, yuv420p, 720x404, 992 kb/s, 29,97 fps(r) (eng)

https://imgadult.com/img-594fd7345d4f1.html

]]>
Sometimes A Girl Just Needs A Friend [BangBrosClips - BangBros] Karlee Grey http://glodls.to/torrent.php?id=2585345 http://glodls.to/torrent.php?id=2585345 Sun, 25 Jun 2017 15:30:23 +0100 Adult XXX
Genre :- [Big Ass, Big Booty, Big Tits, Blowjob, Busty, Cum-in-mouth, Cumshot, Deep Throat, Gagging, Hairy, Hardcore, Office, Squirt, Swallow, 480p]

Screenshot :-

[url=http://imgtorrnt.in/view.php?id=cg83QZv][color=green] View Screen 1 [/color] [/url]

[url=http://imgtorrnt.in/view.php?id=ITgkMdm][color=green] View Screen 2 [/color] [/url]

[img]http://i.imgur.com/cg83QZv.jpg[/img]

]]>
Lesbea.17.06.25.Foxxi.Black.And.Angel.Rush.XXX.1080p.MP4-KTR[N1C] http://glodls.to/torrent.php?id=2585343 http://glodls.to/torrent.php?id=2585343 Sun, 25 Jun 2017 15:29:30 +0100 Adult XXX Lesbea.17.06.25.Foxxi.Black.And.Angel.Rush.XXX.1080p.MP4-KTR


[Format]: MPEG-4
[Duration]: 28mn 52s
[Resolution]: 1 920 x 1 080 pixels
[Display aspect ratio]: 16:9
[Frame rate mode]: Constant
[Frame rate]: 25.000 fps


[color=green][b]#N1C -> To avoid fakes, ALWAYS check that the torrent was added by NO1CARES[/b][/color]




[color=green][b]Help us by donating with Bitcoin: 1Pgwp16gmLHmPzgjJLxZnMw7YeqiUekUoe[/b][/color]

[b]Screens...[/b]
[url]http://HotImage.uk/img-594fd6892c7b8.html[/url]
[url]http://HotImage.uk/img-594fd6895d11f.html[/url]
[url]http://HotImage.uk/img-594fd68968142.html[/url]
[url]http://HotImage.uk/img-594fd689961e7.html[/url] ]]>
TeensLikeItBig - Daddy s Debt - Adria Rae [720p] mp4 http://glodls.to/torrent.php?id=2585342 http://glodls.to/torrent.php?id=2585342 Sun, 25 Jun 2017 15:27:46 +0100 Adult XXX
1.81 GB

Screens

[url]http://img.img-central.com/image/Xf6cJ[/url]
[url]http://img.img-central.com/image/XfGW7[/url]
[url]http://img.img-central.com/image/XfbG3[/url]
[url]http://img.img-central.com/image/Xff0X[/url]

[img]https://s11.postimg.org/pd03sz7ib/Teens_Like_It_Big_1.jpg[/img] ]]>
[DirtyWivesClub - NaughtyAmerica] Alexis Monroe http://glodls.to/torrent.php?id=2585341 http://glodls.to/torrent.php?id=2585341 Sun, 25 Jun 2017 15:26:54 +0100 Adult XXX
Genre :- [Creampie, Ball licking, Blonde, Blow Job, Cum on pussy, Hand Job, High Heels, Lingerie, Shaved, Stockings, Straight, Swallowing] 360p

Screenshot :-

[url=http://imgtorrnt.in/view.php?id=JQ2Zrh9][color=green] View Screen 1 [/color] [/url]

[url=http://imgtorrnt.in/view.php?id=MFBfN6c][color=green] View Screen 2 [/color] [/url]

[img]http://i.imgur.com/JQ2Zrh9.jpg[/img]

]]>
TeensDoPorn 17 06 25 Vanessa Sky XXX 480p MP4-TK http://glodls.to/torrent.php?id=2585340 http://glodls.to/torrent.php?id=2585340 Sun, 25 Jun 2017 15:26:43 +0100 Adult XXX
[b]Screenshots:[/b]

[url]http://imgking.co/imgs-594fd6350e325.html[/url]

[url]http://imgking.co/imgs-594fd63501eca.html[/url]

[url]http://imgking.co/imgs-594fd634ddd25.html[/url]

[url]http://imgking.co/imgs-594fd6331e4de.html[/url]

File Size : 381 MiB
Duration : 45mn 15s
Video : h264, yuv420p, 854x480p, 1024 Kbps
Audio : aac , 2 ch, stereo , 128 Kbps ]]>
A NICE SURPRISE [UK Sinners]**Split Scenes** http://glodls.to/torrent.php?id=2585338 http://glodls.to/torrent.php?id=2585338 Sun, 25 Jun 2017 15:25:51 +0100 Adult XXX [size=4]

Starring: Julia De Lucia, Sabrina J., Alessa Savage, Ava Austen, Candy Chang
Categories: Cunnilingus, Gonzo, HD, One-on-One, Oral, Straight Sex
File size: 1,77 Gb


[b]SCREENS:[/b]

[url=http://imageteam.org/img-594fd3914f566.html]http://imageteam.org/img-594fd3914f566.html[/url]
[url=http://damimage.com/img-594fd3abc4070.html]http://damimage.com/img-594fd3abc4070.html[/url]
[url=http://imgclick.net/rmk11yiehkur/3.jpg.html]http://imgclick.net/rmk11yiehkur/3.jpg.html[/url]
[url=http://imagedecode.com/img-594fd3f7ed7aa.html]http://imagedecode.com/img-594fd3f7ed7aa.html[/url]
[url=https://img.yt/img-594fd418b8587.html]https://img.yt/img-594fd418b8587.html[/url]

[/size]
[/center]
]]>
[FakeTaxi] Rebecca Jane Smyth - Horny MILF Wants Cock and Pussy (25 06 2017) rq mp4 http://glodls.to/torrent.php?id=2585337 http://glodls.to/torrent.php?id=2585337 Sun, 25 Jun 2017 15:25:33 +0100 Adult XXX Audio: aac, 48000 Hz, 2 channels, s16, 129 kb/s (eng)
Video: h264, yuv420p, 854x480, 1504 kb/s, 25,00 fps(r) (und)

https://imgwallet.com/img-594fd5c27e58b.html

]]>
EuroSexParties.17.06.25.Russian.Sex.Party.XXX.1080p.MP4-KTR[N1C] http://glodls.to/torrent.php?id=2585332 http://glodls.to/torrent.php?id=2585332 Sun, 25 Jun 2017 15:21:23 +0100 Adult XXX EuroSexParties.17.06.25.Russian.Sex.Party.XXX.1080p.MP4-KTR


[Format]: MPEG-4
[Duration]: 45mn 8s
[Resolution]: 1 920 x 1 080 pixels
[Display aspect ratio]: 16:9
[Frame rate mode]: Constant
[Frame rate]: 23.976 fps


[color=green][b]#N1C -> To avoid fakes, ALWAYS check that the torrent was added by NO1CARES[/b][/color]




[color=green][b]Help us by donating with Bitcoin: 1Pgwp16gmLHmPzgjJLxZnMw7YeqiUekUoe[/b][/color]

[b]Screens...[/b]
[url]http://HotImage.uk/img-594fd4c9499cc.html[/url]
[url]http://HotImage.uk/img-594fd4c95e6f6.html[/url]
[url]http://HotImage.uk/img-594fd4c96d584.html[/url]
[url]http://HotImage.uk/img-594fd4c979cb0.html[/url] ]]>
ShareMyBF - August Ames, Kenzie Reeves [720p] mp4 http://glodls.to/torrent.php?id=2585331 http://glodls.to/torrent.php?id=2585331 Sun, 25 Jun 2017 15:20:56 +0100 Adult XXX
College Rivals Bond Over Cock

1.87 GB

Screens

[url]http://img.img-central.com/image/Xbqlp[/url]
[url]http://img.img-central.com/image/XbtOC[/url]
[url]http://img.img-central.com/image/Xf1F8[/url]
[url]http://img.img-central.com/image/XfnXr[/url]

[img]https://s23.postimg.org/ffbklm78b/Share_My_BF_1.jpg[/img]
]]>
xChimera - Nancy A [720p] mp4 http://glodls.to/torrent.php?id=2585330 http://glodls.to/torrent.php?id=2585330 Sun, 25 Jun 2017 15:16:32 +0100 Adult XXX
Hot schoolgirl fantasy fuck with gorgeous Ukrainian blonde Nancy A

610.61 MB

Screens

[url]http://img.img-central.com/image/XbYGG[/url]
[url]http://img.img-central.com/image/XbZys[/url]
[url]http://img.img-central.com/image/XbvQy[/url]
[url]http://img.img-central.com/image/Xb8q1[/url]

[img]https://s1.postimg.org/jp5dnipgv/x_Chimera_1.jpg[/img]
]]>
Ripped.2017.HDRip.XviD.AC3-iFT http://glodls.to/torrent.php?id=2585329 http://glodls.to/torrent.php?id=2585329 Sun, 25 Jun 2017 15:16:06 +0100 Movies
[b]ImDb: [URL]http://www.imdb.com/title/tt4876952[/URL][/b]

[url=https://www.sparrowpics.com/image/LwB][img]https://www.sparrowpics.com/images/2015/12/10/Info.png[/img][/url]

[b]Complete name : Ripped.2017.HDRip.XviD.AC3-iFT.avi
Format : AVI
Format/Info : Audio Video Interleave
Format profile : OpenDML
Format settings : rec
File size : 1.42 GiB
Duration : 1 h 27 min
Overall bit rate : 2 319 kb/s
Writing application : AVI-Mux GUI 1.17.8.3, Feb 16 201019:42:50

Video
ID : 0
Format : MPEG-4 Visual
Format profile : Advanced Simple@L5
Format settings, BVOP : 2
Format settings, QPel : No
Format settings, GMC : No warppoints
Format settings, Matrix : Default (H.263)
Muxing mode : Packed bitstream
Codec ID : XVID
Codec ID/Hint : XviD
Duration : 1 h 27 min
Bit rate : 1 929 kb/s
Width : 720 pixels
Height : 400 pixels
Display aspect ratio : 16:9
Frame rate : 23.976 (24000/1001) FPS
Color space : YUV
Chroma subsampling : 4:2:0
Bit depth : 8 bits
Scan type : Progressive
Compression mode : Lossy
Bits/(Pixel*Frame) : 0.279
Stream size : 1.19 GiB (83%)
Writing library : XviD 73

Audio
ID : 1
Format : AC-3
Format/Info : Audio Coding 3
Format settings, Endianness : Big
Codec ID : 2000
Duration : 1 h 27 min
Bit rate mode : Constant
Bit rate : 384 kb/s
Channel(s) : 6 channels
Channel positions : Front: L C R, Side: L R, LFE
Sampling rate : 48.0 kHz
Frame rate : 31.250 FPS (1536 spf)
Bit depth : 16 bits
Compression mode : Lossy
Stream size : 242 MiB (17%)
Alignment : Aligned on interleaves
Interleave, duration : 64 ms (1.53 video frames)
Interleave, preload duration : 192 ms
Title : Ripped.track_2
Service kind : Complete Main[/b]

[url=https://www.sparrowpics.com/image/UYe][img]https://www.sparrowpics.com/images/2015/12/10/Screens.png[/img][/url]

[URL=https://www.sparrowpics.com/image/KCwm1][IMG]https://www.sparrowpics.com/images/2017/06/25/KCwm1.th.jpg[/IMG][/URL]
[URL=https://www.sparrowpics.com/image/KC2WH][b]Click To View Screenshot[/b][/URL]
[URL=https://www.sparrowpics.com/image/KCBzT][b]Click To View Screenshot[/b][/URL]
[URL=https://www.sparrowpics.com/image/KCCDB][b]Click To View Screenshot[/b][/URL][/center] ]]>
ATKGirlfriends 17 06 25 Jamie Marleigh XXX 480p MP4-TK http://glodls.to/torrent.php?id=2585328 http://glodls.to/torrent.php?id=2585328 Sun, 25 Jun 2017 15:09:39 +0100 Adult XXX
[b]Screenshots:[/b]

[url]http://imgking.co/imgs-594fd23499c1c.html[/url]

[url]http://imgking.co/imgs-594fd2348d1e5.html[/url]

[url]http://imgking.co/imgs-594fd2344ae87.html[/url]

[url]http://imgking.co/imgs-594fd2328b64f.html[/url]

File Size : 282 MiB
Duration : 34mn 6s
Video : h264, yuv420p, 854x480p, 1024 Kbps
Audio : aac , 2 ch, stereo , 128 Kbps ]]>
[Lesbea] Angel Rush, Foxxi Black - Glamorous Euro Lesbians in Lingerie (25 06 2017) rq mp4 http://glodls.to/torrent.php?id=2585327 http://glodls.to/torrent.php?id=2585327 Sun, 25 Jun 2017 15:09:20 +0100 Adult XXX Audio: aac, 48000 Hz, 2 channels, s16, 128 kb/s (eng)
Video: h264, yuv420p, 854x480, 1498 kb/s, 25,00 fps(r) (und)

https://imgtaxi.com/img-594fd1f9357ef.html

]]>
Alien Covenant 2017 TC x264 AC3-N O K http://glodls.to/torrent.php?id=2585326 http://glodls.to/torrent.php?id=2585326 Sun, 25 Jun 2017 15:07:10 +0100 Movies
[url=http://www.imdb.com/title/tt2316204]http://www.imdb.com/title/tt2316204[/url]


Source : 1080 TC ...Thanks


Video.

Duration :1h 52mn
Bit rate : 1529Kbps
Width : 720 pixels
Height : 400pixels
Display aspect ratio :16:9
Frame rate : 23.976 fps

Audio.

Format : AC3
Bit rate : 128 Kbps
Channel(s) 2 channels
Sampling rate : 48.0 KHz

[url=https://www.imgextra.uk/image/1rx][img]https://www.imgextra.uk/images/2017/06/25/Alien.Covenant.2017.TC.x264.AC3-N.O.K.mp4_snapshot_00.04.46.th.png[/img][/url] [url=https://www.imgextra.uk/image/1rB][img]https://www.imgextra.uk/images/2017/06/25/Alien.Covenant.2017.TC.x264.AC3-N.O.K.mp4_snapshot_00.08.19.th.png[/img][/url] [url=https://www.imgextra.uk/image/1ry][img]https://www.imgextra.uk/images/2017/06/25/Alien.Covenant.2017.TC.x264.AC3-N.O.K.mp4_snapshot_00.12.14.th.png[/img][/url] [url=https://www.imgextra.uk/image/1rp][img]https://www.imgextra.uk/images/2017/06/25/Alien.Covenant.2017.TC.x264.AC3-N.O.K.mp4_snapshot_00.14.56.th.png[/img][/url] [url=https://www.imgextra.uk/image/1rT][img]https://www.imgextra.uk/images/2017/06/25/Alien.Covenant.2017.TC.x264.AC3-N.O.K.mp4_snapshot_00.23.52.th.png[/img][/url] [url=https://www.imgextra.uk/image/1r9][img]https://www.imgextra.uk/images/2017/06/25/Alien.Covenant.2017.TC.x264.AC3-N.O.K.mp4_snapshot_01.24.15.th.png[/img][/url] [url=https://www.imgextra.uk/image/1rG][img]https://www.imgextra.uk/images/2017/06/25/Alien.Covenant.2017.TC.x264.AC3-N.O.K.mp4_snapshot_01.44.12_2017.06.25_14.44.43.th.png[/img][/url] [url=https://www.imgextra.uk/image/1rU][img]https://www.imgextra.uk/images/2017/06/25/Alien.Covenant.2017.TC.x264.AC3-N.O.K.mp4_snapshot_01.46.32.th.png[/img][/url][/center]
]]>
The.Bad.Batch.2016.HDRip.XviD.AC3-iFT http://glodls.to/torrent.php?id=2585325 http://glodls.to/torrent.php?id=2585325 Sun, 25 Jun 2017 15:04:33 +0100 Movies [color=red][b]
The.Bad.Batch.2016.HDRip.XviD.AC3-iFT

[/b][/color]


IMDb: http://www.imdb.com/title/tt4334266/





[url=https://boltimg.com/image/t52z][img]https://boltimg.com/images/t52z.png[/img][/url]



[color=green][b]
General

(Duration): 1h 58mn
(FileSize): 2.01 GiB



Audio

(Format): AC-3 - Audio Coding 3
(Codec): AC3



Video

(Format): MPEG-4 Visual -
(Media): video/MP4V-ES
(Format): XviD
(Resolution): 720x304 px
(AspectRatio): 2.35:1
(FrameRate): 23.976 fps




[/b][/color]


[url=https://boltimg.com/image/tzTE][img]https://boltimg.com/images/tzTE.png[/img][/url]



[color=purple][b](Click to enlarge)[/b][/color]

[url=https://boltimg.com/image/Wtyyl][img]https://boltimg.com/images/Wtyyl.th.jpg[/img][/url] [url=https://boltimg.com/image/WtSzP][img]https://boltimg.com/images/WtSzP.th.jpg[/img][/url] [url=https://boltimg.com/image/WtmZe][img]https://boltimg.com/images/WtmZe.th.jpg[/img][/url] [url=https://boltimg.com/image/Wt1gc][img]https://boltimg.com/images/Wt1gc.th.jpg[/img][/url] [url=https://boltimg.com/image/Wt7pu][img]https://boltimg.com/images/Wt7pu.th.jpg[/img][/url] [url=https://boltimg.com/image/WtRG3][img]https://boltimg.com/images/WtRG3.th.jpg[/img][/url]

[/center]
]]>
The.Bad.Batch.2016.HDRip.XviD.AC3-iFT http://glodls.to/torrent.php?id=2585324 http://glodls.to/torrent.php?id=2585324 Sun, 25 Jun 2017 15:03:41 +0100 Movies
[b]ImDb: [URL]http://www.imdb.com/title/tt4334266[/URL][/b]

[url=https://www.sparrowpics.com/image/LwB][img]https://www.sparrowpics.com/images/2015/12/10/Info.png[/img][/url]

[b]Complete name : The.Bad.Batch.2016.HDRip.XviD.AC3-iFT.avi
Format : AVI
Format/Info : Audio Video Interleave
Format profile : OpenDML
Format settings : rec
File size : 2.01 GiB
Duration : 1 h 58 min
Overall bit rate : 2 423 kb/s
Writing application : AVI-Mux GUI 1.17.8.3, Feb 16 201019:42:50

Video
ID : 0
Format : MPEG-4 Visual
Format profile : Advanced Simple@L5
Format settings, BVOP : 2
Format settings, QPel : No
Format settings, GMC : No warppoints
Format settings, Matrix : Default (H.263)
Muxing mode : Packed bitstream
Codec ID : XVID
Codec ID/Hint : XviD
Duration : 1 h 58 min
Bit rate : 2 033 kb/s
Width : 720 pixels
Height : 304 pixels
Display aspect ratio : 2.35:1
Frame rate : 23.976 (24000/1001) FPS
Color space : YUV
Chroma subsampling : 4:2:0
Bit depth : 8 bits
Scan type : Progressive
Compression mode : Lossy
Bits/(Pixel*Frame) : 0.387
Stream size : 1.69 GiB (84%)
Writing library : XviD 73

Audio
ID : 1
Format : AC-3
Format/Info : Audio Coding 3
Format settings, Endianness : Big
Codec ID : 2000
Duration : 1 h 58 min
Bit rate mode : Constant
Bit rate : 384 kb/s
Channel(s) : 6 channels
Channel positions : Front: L C R, Side: L R, LFE
Sampling rate : 48.0 kHz
Frame rate : 31.250 FPS (1536 spf)
Bit depth : 16 bits
Compression mode : Lossy
Stream size : 326 MiB (16%)
Alignment : Aligned on interleaves
Interleave, duration : 64 ms (1.53 video frames)
Interleave, preload duration : 192 ms
Title : The.track_2
Service kind : Complete Main[/b]

[url=https://www.sparrowpics.com/image/UYe][img]https://www.sparrowpics.com/images/2015/12/10/Screens.png[/img][/url]

[URL=https://www.sparrowpics.com/image/KCmlX][IMG]https://www.sparrowpics.com/images/2017/06/25/KCmlX.th.jpg[/IMG][/URL]
[URL=https://www.sparrowpics.com/image/KCvxM][b]Click To View Screenshot[/b][/URL]
[URL=https://www.sparrowpics.com/image/KCQYV][b]Click To View Screenshot[/b][/URL]
[URL=https://www.sparrowpics.com/image/KCf4d][b]Click To View Screenshot[/b][/URL][/center] ]]>
TheWhiteBoxxx - Tina Blade [720p] mp4 http://glodls.to/torrent.php?id=2585323 http://glodls.to/torrent.php?id=2585323 Sun, 25 Jun 2017 15:01:31 +0100 Adult XXX
Hot European babe Tina Blade squirts and gets cum on pussy in steamy fuck

366.61 MB

Screens

[url]http://img.img-central.com/image/XbxFg[/url]
[url]http://img.img-central.com/image/XbdXw[/url]
[url]http://img.img-central.com/image/XbhUu[/url]
[url]http://img.img-central.com/image/XbFW2[/url]

[img]https://s1.postimg.org/4kse7dp4f/The_White_Boxxx_1.jpg[/img] ]]>
Tits Oil 3 XXX DVDRip x264-WOP http://glodls.to/torrent.php?id=2585322 http://glodls.to/torrent.php?id=2585322 Sun, 25 Jun 2017 14:58:18 +0100 Adult XXX
W orld Of P orn

P R E S E N T

Tits & Oil # 3

RELEASENAME: Tits.Oil.3.XXX.DVDRip.x264-WOP
RELEASEDATE: 2017-06-25
DVDDATE: 2017-05-31
Source: DVD
Studio: New Sensations
SIZE: 1139 MB
RUNTIME: 01:40:27mins
Codec: x264
Frame Rate: 23.976
CRF: 19
RESOLUTION: 720x406
VIDEO: 1 449 kb/s
AUDIO: AAC LC @ 132 kb/s

Cover:
[url=https://pixxxels.org/image/kdzrtc88j/]https://pixxxels.org/image/kdzrtc88j/[/url]
[url=https://pixxxels.org/image/x4406fg6r/]https://pixxxels.org/image/x4406fg6r/[/url]

Screens:
[url=https://pixxxels.org/image/42y3on80n/]https://pixxxels.org/image/42y3on80n/[/url]
[url=https://pixxxels.org/image/40e81t4d3/]https://pixxxels.org/image/40e81t4d3/[/url]
[url=https://pixxxels.org/image/90bo9r9zr/]https://pixxxels.org/image/90bo9r9zr/[/url] ]]>
Ally Breelsen (Employee Of The Month) 23 06 2017 [DPFanatics - 21Sextury] SiteRip http://glodls.to/torrent.php?id=2585321 http://glodls.to/torrent.php?id=2585321 Sun, 25 Jun 2017 14:55:05 +0100 Adult XXX
Screenshot :-

[url=http://imgtorrnt.in/view.php?id=NaV0R9x][color=green] View Screen 1 [/color] [/url]

[url=http://imgtorrnt.in/view.php?id=bYN2QMY][color=green] View Screen 2 [/color] [/url]

[img]http://i92.fastpic.ru/big/2017/0623/2a/14ca41304f20416401645945c345722a.jpg[/img]

]]>
XXXShades - Anita Bellini, Luna Rival [720p] mp4 http://glodls.to/torrent.php?id=2585320 http://glodls.to/torrent.php?id=2585320 Sun, 25 Jun 2017 14:53:26 +0100 Adult XXX
Sexy babe Anita Bellini fucks Luna Rival's boyfriend in hot cuckolding fuck

465.96 MB

Screens

[url]http://img.img-central.com/image/XbspZ[/url]
[url]http://img.img-central.com/image/XbARL[/url]
[url]http://img.img-central.com/image/XbWl9[/url]
[url]http://img.img-central.com/image/XbuLh[/url]

[img]https://s30.postimg.org/u1l3x9ldt/XXXShades_1.jpg[/img]
]]>
[MrAnal] Valentina Nappi - Amateur Italian Brunette Drilled In The Ass! (02 10 2013) rq mp4 http://glodls.to/torrent.php?id=2585319 http://glodls.to/torrent.php?id=2585319 Sun, 25 Jun 2017 14:52:46 +0100 Adult XXX Audio: aac, 44100 Hz, 2 channels, s16, 68 kb/s (eng)
Video: h264, yuv420p, 720x404, 991 kb/s, 29,97 fps(r) (eng)

https://imgdrive.net/img-594fcdf865844.html

]]>
Blanche Bradburry (Big Black Cock Stretches Tight Lips) 22 06 2017 [FemaleFakeTaxi] SiteRip http://glodls.to/torrent.php?id=2585318 http://glodls.to/torrent.php?id=2585318 Sun, 25 Jun 2017 14:51:57 +0100 Adult XXX
Screenshot :-

[url=http://imgtorrnt.in/view.php?id=1xwTVCr][color=green] View Screen 1 [/color] [/url]

[url=http://imgtorrnt.in/view.php?id=A05tO6l][color=green] View Screen 2 [/color] [/url]

[img]http://i94.fastpic.ru/big/2017/0623/18/93ecbb24865d54727efad0895fc9d618.jpeg[/img]

]]>
Laure Valentin (The first porn scene of Laure Valentin) 21 06 2017 [DorcelClub] HD-1080p http://glodls.to/torrent.php?id=2585317 http://glodls.to/torrent.php?id=2585317 Sun, 25 Jun 2017 14:48:44 +0100 Adult XXX
Screenshot :-

[url=http://imgtorrnt.in/view.php?id=Vr1D2Av][color=green] View Screen 1 [/color] [/url]

[url=http://imgtorrnt.in/view.php?id=dxwL1oc][color=green] View Screen 2 [/color] [/url]

[img]http://i95.fastpic.ru/big/2017/0623/a0/77dba305bc3500bf164c4902952848a0.jpg[/img]

]]>
Mourning.Grave.2014.1080p.BluRay.x264-REGRET http://glodls.to/torrent.php?id=2585316 http://glodls.to/torrent.php?id=2585316 Sun, 25 Jun 2017 14:48:26 +0100 Movies
[b]ImDb: [URL]http://www.imdb.com/title/tt3892620[/URL][/b]

[url=https://www.sparrowpics.com/image/LwB][img]https://www.sparrowpics.com/images/2015/12/10/Info.png[/img][/url]

[b]Complete name : mourning.grave.2014.1080p.bluray.x264-regret.mkv
Format : Matroska
Format version : Version 4 / Version 2
File size : 7.65 GiB
Duration : 1 h 30 min
Overall bit rate : 12.1 Mb/s
Encoded date : UTC 2017-06-14 04:37:36
Writing application : mkvmerge v8.3.0 ('Over the Horizon') 64bit
Writing library : libebml v1.3.1 + libmatroska v1.4.2

Video
ID : 1
Format : AVC
Format/Info : Advanced Video Codec
Format profile : High@L4.1
Format settings, CABAC : Yes
Format settings, ReFrames : 5 frames
Codec ID : V_MPEG4/ISO/AVC
Duration : 1 h 30 min
Bit rate : 10.6 Mb/s
Width : 1 920 pixels
Height : 808 pixels
Display aspect ratio : 2.40:1
Frame rate mode : Constant
Frame rate : 24.000 FPS
Color space : YUV
Chroma subsampling : 4:2:0
Bit depth : 8 bits
Scan type : Progressive
Bits/(Pixel*Frame) : 0.285
Stream size : 6.70 GiB (88%)
Writing library : x264 core 150 r2829 d1fe6fd
Encoding settings : cabac=1 / ref=5 / deblock=1:-3:-3 / analyse=0x3:0x133 / me=umh / subme=9 / psy=1 / psy_rd=1.00:0.00 / mixed_ref=1 / me_range=16 / chroma_me=1 / trellis=2 / 8x8dct=1 / cqm=0 / deadzone=21,11 / fast_pskip=0 / chroma_qp_offset=-2 / threads=18 / lookahead_threads=1 / sliced_threads=0 / nr=0 / decimate=1 / interlaced=0 / bluray_compat=0 / constrained_intra=0 / bframes=3 / b_pyramid=2 / b_adapt=1 / b_bias=0 / direct=3 / weightb=1 / open_gop=0 / weightp=2 / keyint=250 / keyint_min=24 / scenecut=40 / intra_refresh=0 / rc_lookahead=50 / rc=2pass / mbtree=1 / bitrate=10608 / ratetol=1.0 / qcomp=0.60 / qpmin=0 / qpmax=69 / qpstep=4 / cplxblur=20.0 / qblur=0.5 / ip_ratio=1.40 / aq=1:1.00
Language : English
Default : Yes
Forced : No

Audio
ID : 2
Format : DTS
Format/Info : Digital Theater Systems
Mode : 16
Format settings, Endianness : Big
Codec ID : A_DTS
Duration : 1 h 30 min
Bit rate mode : Constant
Bit rate : 1 509 kb/s
Channel(s) : 6 channels
Channel positions : Front: L C R, Side: L R, LFE
Sampling rate : 48.0 kHz
Frame rate : 93.750 FPS (512 spf)
Bit depth : 24 bits
Compression mode : Lossy
Stream size : 976 MiB (12%)
Language : Korean
Default : Yes
Forced : No

Text
ID : 3
Format : UTF-8
Codec ID : S_TEXT/UTF8
Codec ID/Info : UTF-8 Plain Text
Duration : 1 h 24 min
Bit rate : 30 b/s
Count of elements : 688
Stream size : 18.8 KiB (0%)
Title : forced
Language : English
Default : Yes
Forced : Yes

Menu
00:00:00.000 : en:00:00:00.000
00:06:30.750 : en:00:06:30.750
00:14:56.500 : en:00:14:56.500
00:23:11.375 : en:00:23:11.375
00:29:23.292 : en:00:29:23.292
00:37:46.500 : en:00:37:46.500
00:47:12.417 : en:00:47:12.417
00:52:47.250 : en:00:52:47.250
01:04:01.625 : en:01:04:01.625
01:07:58.708 : en:01:07:58.708
01:14:29.833 : en:01:14:29.833
01:21:46.000 : en:01:21:46.000[/b]

[url=https://www.sparrowpics.com/image/UYe][img]https://www.sparrowpics.com/images/2015/12/10/Screens.png[/img][/url]

[URL=https://www.sparrowpics.com/image/KCjy9][IMG]https://www.sparrowpics.com/images/2017/06/25/KCjy9.th.jpg[/IMG][/URL]
[URL=https://www.sparrowpics.com/image/KCnDb][b]Click To View Screenshot[/b][/URL]
[URL=https://www.sparrowpics.com/image/KCK13][b]Click To View Screenshot[/b][/URL]
[URL=https://www.sparrowpics.com/image/KCkTK][b]Click To View Screenshot[/b][/URL][/center] ]]>
BumsBuero - Izzy Mendosa [720p] mp4 http://glodls.to/torrent.php?id=2585315 http://glodls.to/torrent.php?id=2585315 Sun, 25 Jun 2017 14:47:54 +0100 Adult XXX
Sexy German secretary Izzy Mendosa consoles depressed employee in hot fuck

472.47 MB

Screens

[url]http://img.img-central.com/image/XbiUe[/url]
[url]http://img.img-central.com/image/XbpSq[/url]
[url]http://img.img-central.com/image/Xbm6E[/url]
[url]http://img.img-central.com/image/Xboyl[/url]

[img]https://s15.postimg.org/jrrlybqzf/Bums_Buero_1.jpg[/img] ]]>
ATKHairy 17 06 25 Cassidy Bliss Interview XXX 480p MP4-TK http://glodls.to/torrent.php?id=2585314 http://glodls.to/torrent.php?id=2585314 Sun, 25 Jun 2017 14:47:11 +0100 Adult XXX
[b]Screenshots:[/b]

[url]http://imgking.co/imgs-594fccf0e7293.html[/url]

[url]http://imgking.co/imgs-594fccf0d7129.html[/url]

[url]http://imgking.co/imgs-594fccf0bdbf7.html[/url]

[url]http://imgking.co/imgs-594fccef48360.html[/url]

File Size : 105 MiB
Duration : 12mn 45s
Video : h264, yuv420p, 854x480p, 1024 Kbps
Audio : aac , 2 ch, stereo , 128 Kbps ]]>
Clea Gaultier (Cleas Dream Cums True) 22 06 2017 [FirstTimeAuditions - RealityKings] http://glodls.to/torrent.php?id=2585313 http://glodls.to/torrent.php?id=2585313 Sun, 25 Jun 2017 14:45:21 +0100 Adult XXX
Screenshot :-

[url=http://imgtorrnt.in/view.php?id=URrKJRk][color=green] View Screen 1 [/color] [/url]

[url=http://imgtorrnt.in/view.php?id=OVj7JYG][color=green] View Screen 2 [/color] [/url]

[img]http://i94.fastpic.ru/big/2017/0623/5b/a423ca66efff7f0057b0b67d00d5f25b.jpg[/img]

]]>
PureMature - A Nude Awakening - Anna Bell Peaks [720p] mp4 http://glodls.to/torrent.php?id=2585312 http://glodls.to/torrent.php?id=2585312 Sun, 25 Jun 2017 14:44:15 +0100 Adult XXX
617.61 MB

Screens

[url]http://img.img-central.com/image/XbLTS[/url]
[url]http://img.img-central.com/image/XbOL4[/url]
[url]http://img.img-central.com/image/XbrFn[/url]
[url]http://img.img-central.com/image/XbEPm[/url]

[img]https://s14.postimg.org/sqhb3a1ep/Pure_Mature_1.jpg[/img]
]]>
ATKExotics 17 06 25 Veronica Valentine Toys XXX 480p MP4-TK http://glodls.to/torrent.php?id=2585310 http://glodls.to/torrent.php?id=2585310 Sun, 25 Jun 2017 14:44:00 +0100 Adult XXX
[b]Screenshots:[/b]

[url]http://imgking.co/imgs-594fcc3164bef.html[/url]

[url]http://imgking.co/imgs-594fcc3154f65.html[/url]

[url]http://imgking.co/imgs-594fcc313bb62.html[/url]

[url]http://imgking.co/imgs-594fcc2fd59a3.html[/url]

File Size : 162 MiB
Duration : 19mn 38s
Video : h264, yuv420p, 854x480p, 1024 Kbps
Audio : aac , 2 ch, stereo , 128 Kbps ]]>
[TheArtPorn] Chanel Lux - Screwing My Boss (25 06 2017) rq mp4 http://glodls.to/torrent.php?id=2585309 http://glodls.to/torrent.php?id=2585309 Sun, 25 Jun 2017 14:43:37 +0100 Adult XXX Audio: aac, 44100 Hz, stereo, s16, 63 kb/s (und)
Video: h264, yuv420p, 768x432, 619 kb/s, 25,00 fps(r) (und)

https://img.yt/img-594fcc00af5b6.html


]]>
Synthia Fixx (Photo Finish On My Tits) 23 06 2017 [MilfsLikeItBig - Brazzers] http://glodls.to/torrent.php?id=2585308 http://glodls.to/torrent.php?id=2585308 Sun, 25 Jun 2017 14:42:15 +0100 Adult XXX
Screenshot :-

[url=http://imgtorrnt.in/view.php?id=ZXZt2VH][color=green] View Screen 1 [/color] [/url]

[url=http://imgtorrnt.in/view.php?id=eOP8lv4][color=green] View Screen 2 [/color] [/url]

[img]http://i92.fastpic.ru/big/2017/0623/66/30c8bf869b7e2ac401a8326852a4e666.jpg[/img]

]]>
On.the.Beat.1962.DVDRip.XViD http://glodls.to/torrent.php?id=2585307 http://glodls.to/torrent.php?id=2585307 Sun, 25 Jun 2017 14:39:01 +0100 Movies [color=red][b]
On.the.Beat.1962.DVDRip.XViD

[/b][/color]


IMDb: http://www.imdb.com/title/tt0056307/





[url=https://boltimg.com/image/t52z][img]https://boltimg.com/images/t52z.png[/img][/url]



[color=green][b]
General

(Duration): 1h 41mn
(FileSize): 1 002 MiB



Audio

(Format): MPEG Audio -
(Codec): MPA1L3



Video

(Format): MPEG-4 Visual -
(Media): video/MP4V-ES
(Format): XviD
(Resolution): 640x480 px
(AspectRatio): 4:3
(FrameRate): 25.000 fps




[/b][/color]


[url=https://boltimg.com/image/tzTE][img]https://boltimg.com/images/tzTE.png[/img][/url]



[color=purple][b](Click to enlarge)[/b][/color]

[url=https://boltimg.com/image/WtKiO][img]https://boltimg.com/images/WtKiO.th.jpg[/img][/url] [url=https://boltimg.com/image/WtPGS][img]https://boltimg.com/images/WtPGS.th.jpg[/img][/url] [url=https://boltimg.com/image/WtwoE][img]https://boltimg.com/images/WtwoE.th.jpg[/img][/url] [url=https://boltimg.com/image/Wt4Rz][img]https://boltimg.com/images/Wt4Rz.th.jpg[/img][/url] [url=https://boltimg.com/image/WtMkM][img]https://boltimg.com/images/WtMkM.th.jpg[/img][/url] [url=https://boltimg.com/image/WtWYZ][img]https://boltimg.com/images/WtWYZ.th.jpg[/img][/url]

[/center]
]]>
[Pawg] Lisa Ann Takes it Anal Bam! (01 06 2012) rq mp4 http://glodls.to/torrent.php?id=2585306 http://glodls.to/torrent.php?id=2585306 Sun, 25 Jun 2017 14:38:59 +0100 Adult XXX Audio: aac, 44100 Hz, 2 channels, s16, 95 kb/s (eng)
Video: h264, yuv420p, 720x404, 991 kb/s, 29,97 fps(r) (eng)

http://imgclick.net/martqeby1t35/la.jpeg.html


]]>
On the Beat 1962 DVDRip XViD. http://glodls.to/torrent.php?id=2585305 http://glodls.to/torrent.php?id=2585305 Sun, 25 Jun 2017 14:38:29 +0100 Movies
[b]ImDb: [URL]http://www.imdb.com/title/tt0056307[/URL][/b]

[url=https://www.sparrowpics.com/image/LwB][img]https://www.sparrowpics.com/images/2015/12/10/Info.png[/img][/url]

[b]Complete name : On the Beat 1962 DVDRip XViD.avi
Format : AVI
Format/Info : Audio Video Interleave
File size : 1 002 MiB
Duration : 1 h 41 min
Overall bit rate : 1 381 kb/s
IsTruncated : Yes

Video
ID : 0
Format : MPEG-4 Visual
Format profile : Advanced Simple@L5
Format settings, BVOP : 2
Format settings, QPel : No
Format settings, GMC : No warppoints
Format settings, Matrix : Default (H.263)
Muxing mode : Packed bitstream
Codec ID : XVID
Codec ID/Hint : XviD
Duration : 1 h 41 min
Bit rate : 1 116 kb/s
Width : 640 pixels
Height : 480 pixels
Display aspect ratio : 4:3
Frame rate : 25.000 FPS
Color space : YUV
Chroma subsampling : 4:2:0
Bit depth : 8 bits
Scan type : Progressive
Compression mode : Lossy
Bits/(Pixel*Frame) : 0.145
Stream size : 809 MiB (81%)
Writing library : XviD 1.2.1 (UTC 2008-12-04)

Audio
ID : 1
Format : MPEG Audio
Format version : Version 1
Format profile : Layer 3
Codec ID : 55
Codec ID/Hint : MP3
Duration : 1 h 41 min
Bit rate mode : Constant
Bit rate : 256 kb/s
Channel(s) : 2 channels
Sampling rate : 44.1 kHz
Compression mode : Lossy
Delay relative to video : 26 ms
Stream size : 186 MiB (19%)
Alignment : Split accross interleaves
Interleave, duration : 40 ms (1.00 video frame)
Title : Audio Stream
Writing library : LAME3.92[/b]

[url=https://www.sparrowpics.com/image/UYe][img]https://www.sparrowpics.com/images/2015/12/10/Screens.png[/img][/url]

[URL=https://www.sparrowpics.com/image/KCHYZ][IMG]https://www.sparrowpics.com/images/2017/06/25/KCHYZ.th.jpg[/IMG][/URL]
[URL=https://www.sparrowpics.com/image/KCGbx][b]Click To View Screenshot[/b][/URL]
[URL=https://www.sparrowpics.com/image/KCckN][b]Click To View Screenshot[/b][/URL]
[URL=https://www.sparrowpics.com/image/KCVWY][b]Click To View Screenshot[/b][/URL][/center] ]]>
ATKHairy 17 06 25 Olivia Rose Masturbation XXX 480p MP4-TK http://glodls.to/torrent.php?id=2585304 http://glodls.to/torrent.php?id=2585304 Sun, 25 Jun 2017 14:38:05 +0100 Adult XXX
[b]Screenshots:[/b]

[url]http://imgking.co/imgs-594fcace5e3b5.html[/url]

[url]http://imgking.co/imgs-594fcace51d57.html[/url]

[url]http://imgking.co/imgs-594fcace4572a.html[/url]

[url]http://imgking.co/imgs-594fcacd0d8eb.html[/url]

File Size : 106 MiB
Duration : 12mn 53s
Video : h264, yuv420p, 854x480p, 1024 Kbps
Audio : aac , 2 ch, stereo , 128 Kbps ]]>
Howard the Duck - Howard e il Destino del Mondo (1986) H264 Italian English Ac3 5 1 sub ita iCV-MIRCrew http://glodls.to/torrent.php?id=2585303 http://glodls.to/torrent.php?id=2585303 Sun, 25 Jun 2017 14:37:05 +0100 Movies
[center]

[color=red][b][img]https://s23.postimg.org/b9yhws27f/0sc_Del1.png[/img]
[u]NO FOUND ONLY ORIGINAL RELEASE[/u]

[img]https://i.imgur.com/GDNQx1Z.png[/img]

My release is always in double track audio italian and Original audio
for select it use VLC or dvd player home
not use wmp

Howard e il Destino del Mondo - Howard the Duck (1986)

[url=https://postimg.org/image/cmwr6ktjj/][img]https://s19.postimg.org/gja32kej7/image.png[/img][/url]

[URL=https://www.imdb.com/title/tt0091225/][IMG]https://www.userlogos.org/files/logos/Sucka/imdb_new.png[/IMG][/URL]

[img]https://i.imgur.com/fGu1rKv.png[/img]

Titolo originale Howard the Duck
Paese di produzione USA
Anno 1986
Durata 111 min
Genere azione, fantascienza, commedia, avventura
Regia Willard Huyck
Soggetto fumetto della Marvel Comics
Sceneggiatura Willard Huyck, Gloria Katz
Produttore Gloria Katz
Produttore esecutivo George Lucas
Casa di produzione Universal Studios, Lucasfilm
Fotografia Richard H. Kline
Montaggio Michael Chandler, Sidney Wolinsky
Effetti speciali Bob MacDonald Jr.
Musiche John Barry
Scenografia Peter Jamison
Costumi Joe I. Tompkins
Trucco Gracie Atherton, Joy Zapata

[img]https://i.imgur.com/W7kBqiE.png[/img]


Ed Gale, Jordan Prentice, Tim Rose, Steve Sleap, Peter Baird, Mary Wells, Lisa Sturz: Howard
Lea Thompson: Beverly Switzler
Jeffrey Jones: Dr. Walter Jenning
Tim Robbins: Phil Blumburtt
Liz Sagal: Ronette
Tommy Swerdlow: Ginger Moss
Paul Guilfoyle: Ten. Welker
Miles Chapin: Carter
Virginia Capers: Cora Mae
David Paymer: Larry
William Hall: Hanson


[img]https://i.imgur.com/bFK3ggF.png[/img]

Il papero alieno Howard viene trasportato a Cleveland nel corso di un esperimento volto a studiare le specie aliene mediante l'impiego di un apparecchio noto come spettroscopio laser. Nel girovagare disorientato per le strade della città, Howard incontra Beverly Switzler, una giovane e deliziosa cantante rock che, infastidita da ragazzi invadenti, viene salvata dal papero. Colta da curiosità e tenerezza, la ragazza tenta di aiutarlo a tornare a casa rivolgendosi ad uno scienziato suo amico, Phil Blumburtt.................

[img]https://i.imgur.com/48xHWWH.png[/img]

A sarcastic humanoid duck is pulled from his homeworld to Earth where he must stop an alien invader.

[img]https://i.imgur.com/K8bfNTy.png[/img]

[url=https://postimg.org/image/8gbwr8txr/][img]https://s19.postimg.org/6oixwcakz/vlcsnap-2017-06-25-16h14m13s635.png[/img][/url]

[url=https://postimg.org/image/m66g01h1r/][img]https://s19.postimg.org/43dd8tl77/vlcsnap-2017-06-25-16h14m32s717.png[/img][/url]

[url=https://postimg.org/image/jrekfm0sv/][img]https://s19.postimg.org/587fe77o3/vlcsnap-2017-06-25-16h14m43s349.png[/img][/url]


[img]https://i.imgur.com/aVrMohH.png[/img]


[spoiler]
General
Unique ID : 214731980174150152610613909903402498373 (0xA18BE004294A1E169D8F7FAC05AE7945)
Complete name : Howard e il Destino del Mondo (1986).H264.ita.eng.sub.ita.iCV-MIRCrew.mkv
Format : Matroska
Format version : Version 2
File size : 1.34 GiB
Duration : 1h 45mn
Overall bit rate : 1 812 Kbps
Movie name : Howard e il Destino del Mondo (1986)
Encoded date : UTC 2017-04-22 16:52:16
Writing application : DVDFab 9.1.5.7
Writing library : libebml v0.7.8 + libmatroska v0.8.1

Video
ID : 1
Format : AVC
Format/Info : Advanced Video Codec
Format profile : High@L4.1
Format settings, CABAC : Yes
Format settings, ReFrames : 2 frames
Format settings, GOP : M=3, N=24
Codec ID : V_MPEG4/ISO/AVC
Duration : 1h 45mn
Bit rate : 1 135 Kbps
Width : 688 pixels
Height : 384 pixels
Display aspect ratio : 16:9
Frame rate : 25.000 fps
Color space : YUV
Chroma subsampling : 4:2:0
Bit depth : 8 bits
Scan type : Progressive
Bits/(Pixel*Frame) : 0.172
Stream size : 861 MiB (63%)
Writing library : x264 core
Default : Yes
Forced : No
Color primaries : BT.601-6 525, BT.1358 525, BT.1700 NTSC, SMPTE 170M
Transfer characteristics : BT.709-5, BT.1361
Matrix coefficients : BT.601-6 525, BT.1358 525, BT.1700 NTSC, SMPTE 170M

Audio #1
ID : 2
Format : AC-3
Format/Info : Audio Coding 3
Mode extension : CM (complete main)
Codec ID : A_AC3
Duration : 1h 45mn
Bit rate mode : Constant
Bit rate : 448 Kbps
Channel(s) : 6 channels
Channel positions : Front: L C R, Side: L R, LFE
Sampling rate : 48.0 KHz
Bit depth : 16 bits
Compression mode : Lossy
Stream size : 340 MiB (25%)
Language : Italian
Default : Yes
Forced : No

Audio #2
ID : 3
Format : AC-3
Format/Info : Audio Coding 3
Mode extension : CM (complete main)
Codec ID : A_AC3
Duration : 1h 45mn
Bit rate mode : Constant
Bit rate : 192 Kbps
Channel(s) : 2 channels
Channel positions : Front: L R
Sampling rate : 48.0 KHz
Bit depth : 16 bits
Compression mode : Lossy
Stream size : 146 MiB (11%)
Language : English
Default : No
Forced : No

Text
ID : 4
Format : VobSub
Codec ID : S_VOBSUB
Codec ID/Info : The same subtitle format used on DVDs
Language : Italian
Default : Yes
Forced : No

Menu
00:00:00.000 : en:(01)00:00:00:000
00:13:26.000 : en:(02)00:13:26:000
00:19:26.720 : en:(03)00:19:26:720
00:26:27.520 : en:(04)00:26:27:520
00:30:53.320 : en:(05)00:30:53:320
00:46:28.880 : en:(06)00:46:28:880
00:53:22.720 : en:(07)00:53:22:720
00:56:41.440 : en:(08)00:56:41:440
01:10:07.600 : en:(09)01:10:07:600
01:23:10.720 : en:(10)01:23:10:720
01:33:23.240 : en:(11)01:33:23:240
01:38:31.760 : en:(12)01:38:31:760
01:45:59.360 : en:(13)01:45:59:360



[/spoiler]

[/color][/b][/center]

]]>
Amazon.With.Bruce.Parry.S01E01.720p.HDTV.x264-NORiTE http://glodls.to/torrent.php?id=2585302 http://glodls.to/torrent.php?id=2585302 Sun, 25 Jun 2017 14:36:37 +0100 TV
[url=https://www.sparrowpics.com/image/LwB][img]https://www.sparrowpics.com/images/2015/12/10/Info.png[/img][/url]

[b]Complete name : amazon.with.bruce.parry.s01e01.720p.hdtv-norite.mkv
Format : Matroska
Format version : Version 4 / Version 2
File size : 1.28 GiB
Duration : 51 min 18 s
Overall bit rate : 3 580 kb/s
Encoded date : UTC 2017-06-25 14:30:13
Writing application : mkvmerge v9.2.0 ('Photograph') 64bit
Writing library : libebml v1.3.3 + libmatroska v1.4.4

Video
ID : 1
Format : AVC
Format/Info : Advanced Video Codec
Format profile : High@L4.1
Format settings, CABAC : Yes
Format settings, ReFrames : 5 frames
Codec ID : V_MPEG4/ISO/AVC
Duration : 51 min 18 s
Bit rate : 3 384 kb/s
Width : 1 280 pixels
Height : 720 pixels
Display aspect ratio : 16:9
Frame rate mode : Constant
Frame rate : 50.000 FPS
Color space : YUV
Chroma subsampling : 4:2:0
Bit depth : 8 bits
Scan type : Progressive
Bits/(Pixel*Frame) : 0.073
Stream size : 1.21 GiB (95%)
Writing library : x264 core 148 r2762 90a61ec
Encoding settings : cabac=1 / ref=5 / deblock=1:0:0 / analyse=0x3:0x113 / me=hex / subme=8 / psy=1 / psy_rd=1.00:0.00 / mixed_ref=1 / me_range=16 / chroma_me=1 / trellis=2 / 8x8dct=1 / cqm=0 / deadzone=21,11 / fast_pskip=1 / chroma_qp_offset=-2 / threads=6 / lookahead_threads=1 / sliced_threads=0 / nr=0 / decimate=1 / interlaced=0 / bluray_compat=0 / stitchable=1 / constrained_intra=0 / bframes=3 / b_pyramid=2 / b_adapt=1 / b_bias=0 / direct=3 / weightb=1 / open_gop=0 / weightp=2 / keyint=250 / keyint_min=25 / scenecut=40 / intra_refresh=0 / rc_lookahead=50 / rc=crf / mbtree=1 / crf=21.0 / qcomp=0.60 / qpmin=0 / qpmax=69 / qpstep=4 / ip_ratio=1.40 / aq=1:1.00
Default : Yes
Forced : No
Color range : Limited
Color primaries : BT.709
Transfer characteristics : BT.709
Matrix coefficients : BT.709

Audio
ID : 2
Format : MPEG Audio
Format version : Version 1
Format profile : Layer 2
Codec ID : A_MPEG/L2
Codec ID/Hint : MP2
Duration : 51 min 18 s
Bit rate mode : Constant
Bit rate : 192 kb/s
Channel(s) : 2 channels
Sampling rate : 48.0 kHz
Frame rate : 41.667 FPS (1152 spf)
Compression mode : Lossy
Stream size : 70.5 MiB (5%)
Default : Yes
Forced : No[/b]

[url=https://www.sparrowpics.com/image/UYe][img]https://www.sparrowpics.com/images/2015/12/10/Screens.png[/img][/url]

[URL=https://tv.sparrowpics.com/image/2Zh5][IMG]https://tv.sparrowpics.com/images/2017/06/25/2Zh5.th.jpg[/IMG][/URL]
[URL=https://tv.sparrowpics.com/image/2jgw][b]Click To View Screenshot[/b][/URL]
[URL=https://tv.sparrowpics.com/image/2eLH][b]Click To View Screenshot[/b][/URL]
[URL=https://tv.sparrowpics.com/image/2uW0][b]Click To View Screenshot[/b][/URL][/center] ]]>
Jasmine Jae (Lutro auditions for hot British MILF Jasmine Jae in naughty MMF threesome) http://glodls.to/torrent.php?id=2585301 http://glodls.to/torrent.php?id=2585301 Sun, 25 Jun 2017 14:35:25 +0100 Adult XXX
Screenshot :-

[url=http://imgtorrnt.in/view.php?id=9oD3F85][color=green] View Screen 1 [/color] [/url]

[url=http://imgtorrnt.in/view.php?id=vLY2AtV][color=green] View Screen 2 [/color] [/url]

[img]http://i95.fastpic.ru/big/2017/0622/e7/42ba680dfa6d7d863a9303da99def4e7.jpg[/img]

]]>
Cops.S30E02.1080p.WEB.x264-WEBSTER http://glodls.to/torrent.php?id=2585300 http://glodls.to/torrent.php?id=2585300 Sun, 25 Jun 2017 14:34:52 +0100 TV
[url=https://www.sparrowpics.com/image/LwB][img]https://www.sparrowpics.com/images/2015/12/10/Info.png[/img][/url]

[b]Complete name : cops.s30e02.1080p.web.x264-webster.mkv
Format : Matroska
Format version : Version 4 / Version 2
File size : 723 MiB
Duration : 20 min 15 s
Overall bit rate : 4 988 kb/s
Encoded date : UTC 2017-06-25 14:08:15
Writing application : mkvmerge v12.0.0 ('Trust / Lust') 64bit
Writing library : libebml v1.3.4 + libmatroska v1.4.5

Video
ID : 1
Format : AVC
Format/Info : Advanced Video Codec
Format profile : High@L4
Format settings, CABAC : Yes
Format settings, ReFrames : 4 frames
Codec ID : V_MPEG4/ISO/AVC
Duration : 8 min 54 s
Bit rate : 11.1 Mb/s
Width : 1 920 pixels
Height : 1 080 pixels
Display aspect ratio : 16:9
Frame rate mode : Variable
Frame rate : 68.191 FPS
Color space : YUV
Chroma subsampling : 4:2:0
Bit depth : 8 bits
Scan type : Progressive
Bits/(Pixel*Frame) : 0.078
Stream size : 704 MiB (97%)
Writing library : x264 core 148
Encoding settings : cabac=1 / ref=4 / deblock=1:0:0 / analyse=0x3:0x113 / me=umh / subme=10 / psy=1 / psy_rd=1.00:0.15 / mixed_ref=1 / me_range=32 / chroma_me=1 / trellis=2 / 8x8dct=1 / cqm=0 / deadzone=21,11 / fast_pskip=1 / chroma_qp_offset=-3 / threads=24 / lookahead_threads=6 / sliced_threads=0 / nr=0 / decimate=1 / interlaced=0 / bluray_compat=0 / constrained_intra=0 / bframes=3 / b_pyramid=0 / b_adapt=2 / b_bias=0 / direct=3 / weightb=1 / open_gop=0 / weightp=2 / keyint=60 / keyint_min=6 / scenecut=0 / intra_refresh=0 / rc_lookahead=60 / rc=crf / mbtree=1 / crf=19.0 / qcomp=0.75 / qpmin=10 / qpmax=51 / qpstep=4 / vbv_maxrate=5000 / vbv_bufsize=10000 / crf_max=0.0 / nal_hrd=none / filler=0 / ip_ratio=1.40 / aq=1:0.80
Default : Yes
Forced : No

Audio
ID : 2
Format : AAC
Format/Info : Advanced Audio Codec
Format profile : LC
Codec ID : A_AAC
Duration : 20 min 15 s
Bit rate : 128 kb/s
Channel(s) : 2 channels
Channel positions : Front: L R
Sampling rate : 48.0 kHz
Frame rate : 46.875 FPS (1024 spf)
Compression mode : Lossy
Delay relative to video : -33 ms
Stream size : 18.5 MiB (3%)
Default : Yes
Forced : No[/b]

[url=https://www.sparrowpics.com/image/UYe][img]https://www.sparrowpics.com/images/2015/12/10/Screens.png[/img][/url]

[URL=https://tv.sparrowpics.com/image/1mB2][IMG]https://tv.sparrowpics.com/images/2017/06/25/1mB2.th.jpg[/IMG][/URL]
[URL=https://tv.sparrowpics.com/image/1nZg][b]Click To View Screenshot[/b][/URL][/center] ]]>
ATKExotics 17 06 25 Lala Camile Solo XXX 480p MP4-TK http://glodls.to/torrent.php?id=2585299 http://glodls.to/torrent.php?id=2585299 Sun, 25 Jun 2017 14:33:32 +0100 Adult XXX
[b]Screenshots:[/b]

[url]http://imgking.co/imgs-594fc9bd45482.html[/url]

[url]http://imgking.co/imgs-594fc9bd38fb2.html[/url]

[url]http://imgking.co/imgs-594fc9bd20b59.html[/url]

[url]http://imgking.co/imgs-594fc9bbc034c.html[/url]

File Size : 92.5 MiB
Duration : 11mn 15s
Video : h264, yuv420p, 854x480p, 1024 Kbps
Audio : aac , 2 ch, stereo , 128 Kbps ]]>
[MrAnal] Anal with Lisa Ann (20 06 2012) rq mp4 http://glodls.to/torrent.php?id=2585298 http://glodls.to/torrent.php?id=2585298 Sun, 25 Jun 2017 14:33:25 +0100 Adult XXX Audio: aac, 44100 Hz, 2 channels, s16, 95 kb/s (eng)
Video: h264, yuv420p, 720x404, 990 kb/s, 29,97 fps(r) (eng)

https://xeimg.yt/img-594fc9a4d7d63.html

]]>